<?xml version="1.0" standalone="no"?>
<!DOCTYPE svg PUBLIC "-//W3C//DTD SVG 1.1//EN" "http://www.w3.org/Graphics/SVG/1.1/DTD/svg11.dtd" >
<svg xmlns="http://www.w3.org/2000/svg">
<metadata></metadata>
<defs>
<font id="30_pack_girlbold" horiz-adv-x="1139" >
<font-face units-per-em="2048" ascent="1638" descent="-410" />
<missing-glyph horiz-adv-x="569" />
<glyph horiz-adv-x="2048" />
<glyph horiz-adv-x="2048" />
<glyph unicode="&#xd;" horiz-adv-x="569" />
<glyph unicode=" "  horiz-adv-x="569" />
<glyph unicode="&#x09;" horiz-adv-x="569" />
<glyph unicode="&#xa0;" horiz-adv-x="569" />
<glyph unicode="!" horiz-adv-x="697" d="M0 49v124l49 49h173l123 25l50 -74v-124l-50 -49h-296zM25 592l24 1184l568 74l24 -25v-24q-252 -1258 -296 -1258l-222 -25h-49q-49 0 -49 74z" />
<glyph unicode="&#x22;" horiz-adv-x="712" d="M-8 1790v40l101 20h181l20 -20h20l-80 -463h-61zM395 1669v100q0 41 221 81l20 -20q-35 -564 -100 -564q-141 163 -141 403z" />
<glyph unicode="#" horiz-adv-x="981" d="M0 1101q0 109 152 109v152h-22l-65 -22l-22 65q0 174 131 174q21 195 65 195h173l-43 -195h174q51 0 65 174l217 43l22 -22v-21l-65 -174q130 0 130 -43q0 -131 -174 -131l-65 -195h130l22 -22h22q-28 -108 -65 -108h-174q-22 -174 -87 -174h-87v65l22 109h-195l-22 -131 h-65q-44 0 -44 109q-130 0 -130 43zM282 1210h174q51 0 65 174q-239 0 -239 -174z" />
<glyph unicode="$" horiz-adv-x="1243" d="M0 815v35l69 69h725v69h-35l-724 69v69q0 379 103 379h276v276l69 69h35q69 0 69 -103l-35 -242h35l241 35l250 -187l-28 -57l-264 35l-421 -7l15 -95l586 -34h69q78 0 138 -414l-34 -35h-518q-34 -207 -103 -207h-35q-69 0 -69 207h-345z" />
<glyph unicode="%" horiz-adv-x="1326" d="M0 54l1185 1669h27l27 -27h27q-743 -1092 -997 -1696h-81q-188 0 -188 54zM350 1589q80 269 269 269l189 -188q0 -102 -162 -216h-161zM512 1723l80 -80v-27l81 27v80l-54 54h-80v-54h-27zM539 242q0 458 403 458l54 -54h-54l-26 27h-27l-108 -134v-54l54 -81 q188 66 188 161l-27 81h54l54 -54v-53q0 -258 -377 -404q-188 53 -188 107z" />
<glyph unicode="&#x26;" horiz-adv-x="996" d="M0 561v21q0 74 82 165l185 -103q288 31 288 247l-226 61v42q185 123 185 226l-20 20h-83q-125 0 -267 -102q-123 62 -123 123q82 123 82 226h20q62 0 62 -82q82 0 206 288h20q152 0 165 -62l-62 -205h21l123 20h21l123 -144v-20q0 -110 -185 -227q270 -20 309 -123v-185 q0 -109 -473 -268l-21 21q-49 -350 -103 -350q-94 40 -103 82l41 247q-267 27 -267 82z" />
<glyph unicode="'" horiz-adv-x="391" d="M0 1355v25l74 296v25l-49 74l321 74l25 -25q-93 -469 -371 -469z" />
<glyph unicode="(" horiz-adv-x="861" d="M0 826v284q94 748 465 748q387 -103 387 -155q-465 -499 -465 -1006q0 -229 207 -568l-362 -129q-232 285 -232 826z" />
<glyph unicode=")" horiz-adv-x="884" d="M0 301q437 245 437 847q0 218 -218 628l218 82q0 -51 246 -191q164 -307 164 -629q-109 -1038 -683 -1038q-164 213 -164 301z" />
<glyph unicode="*" horiz-adv-x="797" d="M22 1615l125 125l125 -100q25 200 75 200h74q75 0 75 -300l175 125l100 -100l-200 -199l100 -125v-50l-75 -75l-224 150l-125 -100q-134 0 -175 100q125 132 125 200z" />
<glyph unicode="+" horiz-adv-x="899" d="M23 863v185q23 70 139 70h116v23q11 278 92 278h324v-23l-46 -255l23 23h93l23 -23h23q-85 -334 -139 -347h-139q-46 -232 -92 -232q-255 41 -255 93l23 139h-116z" />
<glyph unicode="," horiz-adv-x="472" d="M0 75v137q0 52 137 103q275 -34 275 -103q0 -240 -240 -445h-69v34l34 240l-34 -35h-34z" />
<glyph unicode="-" horiz-adv-x="742" d="M0 872v239l40 40h617l20 -20h20q-26 -299 -80 -299h-577z" />
<glyph unicode="." horiz-adv-x="457" d="M0 58v173q29 86 173 86l202 -115v-144l-58 -58h-259z" />
<glyph unicode="/" horiz-adv-x="1498" d="M0 270l1022 1593q420 -60 420 -150q-961 -1544 -1142 -1713z" />
<glyph unicode="0" horiz-adv-x="1049" d="M0 640v426q0 639 487 762l122 -31l61 61q305 -196 305 -761q0 -761 -427 -1097h-61q-355 0 -487 640zM305 853q111 -427 182 -427h61q183 403 183 731q-55 244 -122 244h-183z" />
<glyph unicode="1" horiz-adv-x="824" d="M0 1216v185q117 139 766 449v-26q-334 -1824 -396 -1824h-185l-53 53l132 1216l-211 -53h-53z" />
<glyph unicode="2" horiz-adv-x="1685" d="M0 0v30l989 1169v30l-90 90l-479 -60l-30 30q30 419 179 419l600 150h120q179 -117 179 -210q-16 -364 -509 -959h30l449 180h60l120 -539l-1588 -330h-30z" />
<glyph unicode="3" horiz-adv-x="1618" d="M0 305l274 304l487 -152q275 114 275 304v61q-135 214 -335 214l-396 -31v61q365 110 365 213v61q0 70 -152 92q-224 0 -457 -153l-31 31v274q155 164 914 274h61q139 -59 152 -122v-61q0 -224 -213 -457v-30h183q380 0 426 -457q0 -467 -974 -731h-274q-305 41 -305 305 z" />
<glyph unicode="4" horiz-adv-x="1408" d="M0 1028v34q456 788 548 788q249 0 583 -206l102 -34h103v-34q-115 -1576 -240 -1576h-342l-69 69v308l34 411l-616 -69zM582 1096h69l103 35v171h-35z" />
<glyph unicode="5" horiz-adv-x="1341" d="M-8 293v63q39 252 188 252l252 -157h188q0 62 189 251v94q-99 189 -346 189h-157l-314 -63v659q0 126 974 126q157 -204 157 -314h-691v-157h251q446 0 597 -346v-31q-118 -754 -723 -754h-188q-267 0 -377 188z" />
<glyph unicode="6" horiz-adv-x="1446" d="M0 504q253 1302 840 1302h252q114 -49 294 -420q-714 -68 -714 -294h378q228 0 336 -210v-168q-272 -714 -756 -714h-42q-588 66 -588 504zM420 462l42 -42h252l84 294h-84q-294 0 -294 -252z" />
<glyph unicode="7" horiz-adv-x="1558" d="M0 105l736 1157l-70 70h-561l-70 70l70 456l876 -35h526q-199 -667 -1121 -1823q-386 35 -386 105z" />
<glyph unicode="8" horiz-adv-x="1418" d="M0 247v185q0 227 216 493l-123 154q185 771 585 771h62q325 0 586 -339l31 -31v-31q0 -221 -124 -462q124 -33 124 -309q-204 -678 -1018 -678h-31q-172 0 -308 247zM401 339l92 -31q290 0 463 278v123l-62 62h-216q-277 -155 -277 -339v-93zM524 1233l154 -30 q309 55 309 246l-185 62q-278 -40 -278 -278z" />
<glyph unicode="9" horiz-adv-x="1311" d="M0 1026q0 570 662 828q596 -43 596 -133v-132q0 -1018 -497 -1589q-231 33 -231 99l265 828h-34l-463 -166zM463 1192h34l397 132v166l-99 33q-332 -99 -332 -331z" />
<glyph unicode=":" horiz-adv-x="434" d="M0 66v44q0 264 154 264h44l44 -44v-264q-22 -66 -132 -66h-44zM22 748q56 242 110 242h154l66 -66q0 -193 -154 -330q-176 44 -176 154z" />
<glyph unicode=";" horiz-adv-x="449" d="M8 187l115 116q254 -18 254 -70q-47 -599 -300 -599l-23 -24l-23 24q92 153 92 368q-115 0 -115 185zM147 603v277q0 58 207 115l23 -23v-23q0 -393 -69 -393h-115z" />
<glyph unicode="&#x3c;" horiz-adv-x="1558" d="M0 652q353 352 848 815q195 173 195 391h33q322 -326 424 -326q-320 -335 -750 -750v-65q782 -252 782 -326q-174 -327 -293 -391h-33q-710 220 -1206 652z" />
<glyph unicode="=" horiz-adv-x="1034" d="M14 547q0 290 184 290l685 79l27 -26v-264q0 -79 -870 -105zM67 1021v80q0 237 263 237l527 26l79 -263l-26 -27h-27z" />
<glyph unicode="&#x3e;" horiz-adv-x="1603" d="M0 1597q135 187 293 261h33l1239 -782v-33l-1239 -1043l-228 391v33q106 138 749 521z" />
<glyph unicode="?" horiz-adv-x="1343" d="M0 1334v24q0 357 381 357l858 143l47 -119q0 -460 -857 -1167h-215l-47 47v24q0 178 595 715v24h-24l-714 -72zM95 0v24q0 286 167 286l214 47l24 -24v-23q0 -286 -238 -286z" />
<glyph unicode="@" horiz-adv-x="1693" d="M7 927q0 470 473 645q83 43 236 43h193q709 -95 709 -559v-86q0 -334 -451 -687l-150 -43h-108q-258 0 -301 387l-150 -22h-107q-108 62 -108 129q0 338 430 494l129 -43l107 22l22 -65l-86 -451l43 -107q386 57 386 322v21q0 413 -601 494q-316 0 -451 -300 q-86 -212 -86 -387q49 -344 279 -344v-21l-64 -65q-246 0 -344 623zM501 777q129 0 129 129h-22q-107 -16 -107 -65v-64z" />
<glyph unicode="A" horiz-adv-x="1536" d="M0 139q393 1512 463 1619l486 70q486 -1051 486 -1527v-23q0 -185 -417 -185h-23l-93 370q-347 -45 -347 -162l-46 -301h-23q-113 0 -486 139zM648 787h139v23l-70 301h-23z" />
<glyph unicode="B" horiz-adv-x="1528" d="M0 764v101l25 942q131 51 586 51h51q560 -65 560 -356v-51q0 -218 -382 -433v-51h76q535 -104 535 -407q0 -440 -1069 -560q-331 0 -331 229zM458 713l26 -178q432 50 432 127q0 102 -331 152h-127v-101zM484 1094q356 60 356 153v51q0 69 -331 102l-25 -255v-51z" />
<glyph unicode="C" horiz-adv-x="1367" d="M0 423q0 1436 704 1436q518 -110 592 -225q-335 -563 -479 -563q-327 0 -423 -282l113 -282l395 113l281 -366q-247 -254 -535 -254q-458 0 -648 423z" />
<glyph unicode="D" horiz-adv-x="1384" d="M0 1570v121l181 151q448 0 1148 -725v-60q0 -716 -936 -1057h-182q-149 0 -211 1570zM423 1238l90 -634q333 206 333 392q-45 89 -423 242z" />
<glyph unicode="E" horiz-adv-x="1311" d="M0 1249q30 346 122 579l244 30l791 -30l31 -31v-30l-31 -427v-30l-60 -61h-671v-152h335l61 -61v-214q0 -91 -335 -91l-30 -30v-244l152 30h366l213 31l30 -31v-274l31 -152l-31 -31h-1005l-30 -30h-31q-49 0 -152 1249z" />
<glyph unicode="F" horiz-adv-x="1431" d="M0 1795l28 28v27l1325 -55l28 -27l-193 -525q-216 0 -718 166v-56l27 -469l304 27l28 -27v-194q0 -68 -304 -138l55 -524l-28 -28q-414 110 -414 221z" />
<glyph unicode="G" horiz-adv-x="1373" d="M0 724q152 1134 724 1134h252q123 -50 347 -504l-32 -31l-189 31q-693 0 -693 -441v-441l315 95v94l-157 63q63 315 126 315q567 -82 567 -157q-259 -882 -693 -882h-189q-378 235 -378 724z" />
<glyph unicode="H" horiz-adv-x="1403" d="M0 1516v225q0 90 646 112v-28l-56 -842q224 38 224 84l28 646l506 84v-28q-289 -1663 -365 -1713h-28q-169 28 -169 84v450l-224 -57v-56q0 -449 -113 -449l-140 -28h-141q-168 0 -168 1516z" />
<glyph unicode="I" horiz-adv-x="1101" d="M0 27q53 451 133 451h186l159 876l-27 -27h-239v27q58 477 213 477l584 27h53v-27q0 -477 -266 -477l-159 -850l27 27h212l53 -53q-61 -372 -186 -372l-716 -106z" />
<glyph unicode="J" horiz-adv-x="1230" d="M0 400v114q0 382 229 515h28q190 0 314 -258l-142 -257l28 -28h57q229 131 229 600v428h-514q0 343 200 343h685l58 -57v-114l28 -457q0 -1229 -657 -1229q-543 65 -543 400z" />
<glyph unicode="K" horiz-adv-x="1366" d="M0 943l28 860l27 27h361l139 28v-471h27q0 102 333 388q212 -166 277 -305l-416 -444q527 -621 527 -693q-188 -250 -249 -250l-527 388q0 -443 -111 -443l-250 -28q-166 191 -166 943z" />
<glyph unicode="L" horiz-adv-x="1397" d="M0 1704q26 154 77 154l388 -25v-26l-26 -103v-672l26 -387q533 52 722 181l155 -542q-1023 -284 -1239 -284z" />
<glyph unicode="M" horiz-adv-x="1745" d="M0 1796h27l789 -708h27l490 762h82l299 -1660q-121 -54 -571 -81q-89 680 -136 680l-109 -326h-27l-191 190v-27l27 -599l-27 -27h-54q-490 0 -490 109z" />
<glyph unicode="N" horiz-adv-x="1768" d="M0 1802l84 57q789 0 789 -141l197 -648h28l85 620l535 -85q-141 -1605 -197 -1605h-395q-422 718 -422 817h-28v-85l28 -479l-28 -28h-507q-77 0 -169 1577z" />
<glyph unicode="O" horiz-adv-x="1416" d="M0 796q0 780 413 1033h88l30 -30l177 59q649 -277 649 -649v-147q0 -693 -767 -1062h-59q-502 86 -502 501zM383 826q52 -207 118 -207h148q147 75 147 266l-29 324l-118 30q-199 0 -266 -413z" />
<glyph unicode="P" horiz-adv-x="1288" d="M0 84v1718l28 28v28l141 -28l450 28q620 0 620 -394v-56q0 -318 -620 -620q-169 -18 -169 -112l-28 -648l-28 -28h-169q-207 0 -225 84zM479 1013q215 0 309 282l-281 56v-56z" />
<glyph unicode="Q" horiz-adv-x="1321" d="M0 864q54 915 366 915q0 40 105 79q733 -267 733 -811q0 -190 -131 -550l183 -209v-52l-235 -236q-105 118 -105 183h-26q-166 -183 -340 -183h-105q-445 0 -445 864zM393 837q43 -392 157 -392h26l104 105l-104 183q97 194 157 209l78 -78h26v340q-75 131 -157 131 q-287 0 -287 -445v-53z" />
<glyph unicode="R" horiz-adv-x="1790" d="M0 1400v189q474 269 808 269h81q350 -34 350 -269v-27l-377 -458v-27l861 -781l-188 -269q-299 0 -970 431l27 -323v-81l-53 -54h-27q-350 0 -350 135q-162 985 -162 1265zM565 996h27l162 297h-189v-297z" />
<glyph unicode="S" horiz-adv-x="1655" d="M0 1058v385q69 416 705 416q770 -32 770 -128l-193 -449l-192 65h-385l-160 -33v-32q0 -137 898 -224q160 -104 160 -289q-153 -705 -256 -705l-706 -64q-334 0 -545 256v353l64 96l321 -32h160q417 0 417 96q-1058 225 -1058 289z" />
<glyph unicode="T" horiz-adv-x="1536" d="M0 1706h30q244 61 366 152h1036l60 -61v-457q-30 -91 -182 -91h-305q-80 -1249 -183 -1249h-274l-30 30h-31l122 1188l-152 -30h-305q-102 0 -152 518z" />
<glyph unicode="U" horiz-adv-x="1288" d="M0 599v150q39 1109 210 1109h329l60 -60l-60 -1289l210 -59v1258q0 69 420 90l30 -30v-809l30 -629q-166 -330 -630 -330q-599 0 -599 599z" />
<glyph unicode="V" horiz-adv-x="1199" d="M0 1799l88 59h266l118 -855q51 0 206 767l30 29q442 -21 442 -88l-560 -1711h-59z" />
<glyph unicode="W" horiz-adv-x="1603" d="M0 1664l499 83l28 -28l-28 -27v-28l56 -527q67 0 249 499h56l138 -665h28v804q0 63 388 83v-111q0 -388 139 -1608q-140 -56 -499 -56q-49 0 -167 638h-27q-175 -693 -278 -693h-388l-28 -28h-27q-56 128 -139 1664z" />
<glyph unicode="X" horiz-adv-x="1536" d="M0 1523q61 102 335 274l335 -396l244 457h30q408 -105 457 -213l-457 -640l548 -700q-15 -60 -487 -305h-91l-244 457h-30q-132 -427 -183 -427q-396 227 -396 275l305 609z" />
<glyph unicode="Y" horiz-adv-x="1311" d="M0 1248v291q0 75 552 203l29 -29l-87 -290l29 -88l319 88l-58 290q263 145 377 145v-29l87 -494q-348 -152 -348 -435q-136 -871 -261 -871l-145 -29h-88l-58 58l175 871l-146 -29q-377 0 -377 348z" />
<glyph unicode="Z" horiz-adv-x="1730" d="M0 0v29l925 1359v28l-636 -28l-29 28h-29q0 376 203 376l260 58l607 -29h318l58 -58l-752 -983h58l231 87l29 -29v-115l29 -347q-92 -87 -1272 -376z" />
<glyph unicode="[" horiz-adv-x="742" d="M0 122l73 1728q633 -24 633 -122v-194l-24 -25v-24l-341 49v-73l-25 -1096h25q268 0 268 -73v-292h-25q-584 56 -584 122z" />
<glyph unicode="\" horiz-adv-x="1281" d="M0 1692q193 98 319 98q0 -238 711 -1152q196 -311 196 -466v-49q-102 -123 -294 -123q-756 1121 -834 1520q-64 0 -98 172z" />
<glyph unicode="]" horiz-adv-x="824" d="M0 49v194l49 49l292 -24l24 97l24 1193l-365 -49l-24 25v219q0 79 730 97l25 -24l-49 -1802l-24 -24h-633z" />
<glyph unicode="^" horiz-adv-x="961" d="M37 1058v61q0 161 428 611q427 -571 427 -642q-129 -122 -244 -122l-214 275l-336 -275z" />
<glyph unicode="_" horiz-adv-x="1191" d="M0 44v263l44 43h197l876 -21l22 -22v-263q0 -44 -66 -44l-744 66q-189 0 -307 -44z" />
<glyph unicode="`" horiz-adv-x="682" />
<glyph unicode="a" horiz-adv-x="1536" d="M0 139q393 1512 463 1619l486 70q486 -1051 486 -1527v-23q0 -185 -417 -185h-23l-93 370q-347 -45 -347 -162l-46 -301h-23q-113 0 -486 139zM648 787h139v23l-70 301h-23z" />
<glyph unicode="b" horiz-adv-x="1528" d="M0 764v101l25 942q131 51 586 51h51q560 -65 560 -356v-51q0 -218 -382 -433v-51h76q535 -104 535 -407q0 -440 -1069 -560q-331 0 -331 229zM458 713l26 -178q432 50 432 127q0 102 -331 152h-127v-101zM484 1094q356 60 356 153v51q0 69 -331 102l-25 -255v-51z" />
<glyph unicode="c" horiz-adv-x="1367" d="M0 423q0 1436 704 1436q518 -110 592 -225q-335 -563 -479 -563q-327 0 -423 -282l113 -282l395 113l281 -366q-247 -254 -535 -254q-458 0 -648 423z" />
<glyph unicode="d" horiz-adv-x="1384" d="M0 1570v121l181 151q448 0 1148 -725v-60q0 -716 -936 -1057h-182q-149 0 -211 1570zM423 1238l90 -634q333 206 333 392q-45 89 -423 242z" />
<glyph unicode="e" horiz-adv-x="1311" d="M0 1249q30 346 122 579l244 30l791 -30l31 -31v-30l-31 -427v-30l-60 -61h-671v-152h335l61 -61v-214q0 -91 -335 -91l-30 -30v-244l152 30h366l213 31l30 -31v-274l31 -152l-31 -31h-1005l-30 -30h-31q-49 0 -152 1249z" />
<glyph unicode="f" horiz-adv-x="1431" d="M0 1795l28 28v27l1325 -55l28 -27l-193 -525q-216 0 -718 166v-56l27 -469l304 27l28 -27v-194q0 -68 -304 -138l55 -524l-28 -28q-414 110 -414 221z" />
<glyph unicode="g" horiz-adv-x="1373" d="M0 724q152 1134 724 1134h252q123 -50 347 -504l-32 -31l-189 31q-693 0 -693 -441v-441l315 95v94l-157 63q63 315 126 315q567 -82 567 -157q-259 -882 -693 -882h-189q-378 235 -378 724z" />
<glyph unicode="h" horiz-adv-x="1403" d="M0 1516v225q0 90 646 112v-28l-56 -842q224 38 224 84l28 646l506 84v-28q-289 -1663 -365 -1713h-28q-169 28 -169 84v450l-224 -57v-56q0 -449 -113 -449l-140 -28h-141q-168 0 -168 1516z" />
<glyph unicode="i" horiz-adv-x="959" d="M0 58q208 1239 259 1266l547 87l29 -29v-29l-576 -1353zM230 1583v29q0 271 375 345q112 58 316 58l29 -29q-41 -345 -173 -345l-518 -87z" />
<glyph unicode="j" horiz-adv-x="966" d="M-49 424q27 258 233 549l214 -66l-168 -556l19 -24l44 -5h4q134 0 301 1028l-63 29l4 43l359 51q11 -167 11 -322q0 -213 -20 -405l-23 -218q-41 -399 -517 -521l-131 14q-271 28 -271 323q0 38 4 80zM518 1645l11 109q6 54 453 108l26 -179q-105 -51 -470 -62z" />
<glyph unicode="k" horiz-adv-x="1366" d="M0 943l28 860l27 27h361l139 28v-471h27q0 102 333 388q212 -166 277 -305l-416 -444q527 -621 527 -693q-188 -250 -249 -250l-527 388q0 -443 -111 -443l-250 -28q-166 191 -166 943z" />
<glyph unicode="l" horiz-adv-x="1397" d="M0 1704q26 154 77 154l388 -25v-26l-26 -103v-672l26 -387q533 52 722 181l155 -542q-1023 -284 -1239 -284z" />
<glyph unicode="m" horiz-adv-x="1745" d="M0 1796h27l789 -708h27l490 762h82l299 -1660q-121 -54 -571 -81q-89 680 -136 680l-109 -326h-27l-191 190v-27l27 -599l-27 -27h-54q-490 0 -490 109z" />
<glyph unicode="n" horiz-adv-x="1768" d="M0 1802l84 57q789 0 789 -141l197 -648h28l85 620l535 -85q-141 -1605 -197 -1605h-395q-422 718 -422 817h-28v-85l28 -479l-28 -28h-507q-77 0 -169 1577z" />
<glyph unicode="o" horiz-adv-x="1416" d="M0 796q0 780 413 1033h88l30 -30l177 59q649 -277 649 -649v-147q0 -693 -767 -1062h-59q-502 86 -502 501zM383 826q52 -207 118 -207h148q147 75 147 266l-29 324l-118 30q-199 0 -266 -413z" />
<glyph unicode="p" horiz-adv-x="1288" d="M0 84v1718l28 28v28l141 -28l450 28q620 0 620 -394v-56q0 -318 -620 -620q-169 -18 -169 -112l-28 -648l-28 -28h-169q-207 0 -225 84zM479 1013q215 0 309 282l-281 56v-56z" />
<glyph unicode="q" horiz-adv-x="1321" d="M0 864q54 915 366 915q0 40 105 79q733 -267 733 -811q0 -190 -131 -550l183 -209v-52l-235 -236q-105 118 -105 183h-26q-166 -183 -340 -183h-105q-445 0 -445 864zM393 837q43 -392 157 -392h26l104 105l-104 183q97 194 157 209l78 -78h26v340q-75 131 -157 131 q-287 0 -287 -445v-53z" />
<glyph unicode="r" horiz-adv-x="1790" d="M0 1400v189q474 269 808 269h81q350 -34 350 -269v-27l-377 -458v-27l861 -781l-188 -269q-299 0 -970 431l27 -323v-81l-53 -54h-27q-350 0 -350 135q-162 985 -162 1265zM565 996h27l162 297h-189v-297z" />
<glyph unicode="s" horiz-adv-x="1655" d="M0 1058v385q69 416 705 416q770 -32 770 -128l-193 -449l-192 65h-385l-160 -33v-32q0 -137 898 -224q160 -104 160 -289q-153 -705 -256 -705l-706 -64q-334 0 -545 256v353l64 96l321 -32h160q417 0 417 96q-1058 225 -1058 289z" />
<glyph unicode="t" horiz-adv-x="1536" d="M0 1706h30q244 61 366 152h1036l60 -61v-457q-30 -91 -182 -91h-305q-80 -1249 -183 -1249h-274l-30 30h-31l122 1188l-152 -30h-305q-102 0 -152 518z" />
<glyph unicode="u" horiz-adv-x="1288" d="M0 599v150q39 1109 210 1109h329l60 -60l-60 -1289l210 -59v1258q0 69 420 90l30 -30v-809l30 -629q-166 -330 -630 -330q-599 0 -599 599z" />
<glyph unicode="v" horiz-adv-x="1199" d="M0 1799l88 59h266l118 -855q51 0 206 767l30 29q442 -21 442 -88l-560 -1711h-59z" />
<glyph unicode="w" horiz-adv-x="1603" d="M0 1664l499 83l28 -28l-28 -27v-28l56 -527q67 0 249 499h56l138 -665h28v804q0 63 388 83v-111q0 -388 139 -1608q-140 -56 -499 -56q-49 0 -167 638h-27q-175 -693 -278 -693h-388l-28 -28h-27q-56 128 -139 1664z" />
<glyph unicode="x" horiz-adv-x="1536" d="M0 1523q61 102 335 274l335 -396l244 457h30q408 -105 457 -213l-457 -640l548 -700q-15 -60 -487 -305h-91l-244 457h-30q-132 -427 -183 -427q-396 227 -396 275l305 609z" />
<glyph unicode="y" horiz-adv-x="1311" d="M0 1248v291q0 75 552 203l29 -29l-87 -290l29 -88l319 88l-58 290q263 145 377 145v-29l87 -494q-348 -152 -348 -435q-136 -871 -261 -871l-145 -29h-88l-58 58l175 871l-146 -29q-377 0 -377 348z" />
<glyph unicode="z" horiz-adv-x="1730" d="M0 0v29l925 1359v28l-636 -28l-29 28h-29q0 376 203 376l260 58l607 -29h318l58 -58l-752 -983h58l231 87l29 -29v-115l29 -347q-92 -87 -1272 -376z" />
<glyph unicode="{" horiz-adv-x="936" d="M0 1070l28 28q619 -148 619 -253q0 -169 -197 -169l-394 -57l-28 28v141zM141 1492l169 366h56l507 -479v-28l-197 -197zM197 253q0 67 450 169l85 -140q-285 -282 -366 -282z" />
<glyph unicode="|" horiz-adv-x="532" d="M0 39l155 1567v97q142 34 271 155h19l-174 -1684v-58l-39 -116z" />
<glyph unicode="}" horiz-adv-x="1101" d="M0 1428l487 422l259 -260v-32l-584 -422q-162 130 -162 292zM195 714q0 422 357 422l454 162l33 -32v-552l-65 -65h-714zM227 260q105 292 162 292l552 -227q-157 -324 -227 -325q-487 97 -487 260z" />
<glyph unicode="~" horiz-adv-x="1196" />
<glyph unicode="&#xa1;" horiz-adv-x="682" />
<glyph unicode="&#xa2;" horiz-adv-x="869" d="M0 1166v68q0 254 342 377v171l68 68h103v-205q184 0 239 -137v-68h-102l-411 -69v-68l69 -103l444 137l72 -117l-292 -173l-53 -223h-103q-68 0 -68 103l34 102h-205z" />
<glyph unicode="&#xa3;" />
<glyph unicode="&#xa4;" />
<glyph unicode="&#xa5;" />
<glyph unicode="&#xa6;" horiz-adv-x="532" />
<glyph unicode="&#xa7;" />
<glyph unicode="&#xa8;" horiz-adv-x="682" />
<glyph unicode="&#xa9;" horiz-adv-x="2060" d="M0 617v148q0 552 913 1036l296 49q764 -152 764 -592l25 -197v-99q0 -353 -691 -814q-299 -148 -592 -148q-560 0 -715 617zM247 740q0 -286 419 -469q377 0 888 444q123 142 123 247v25q-104 444 -246 444l-99 -25l-25 74q-800 0 -1036 -617zM469 592q181 715 666 715 q290 -12 296 -74q0 -179 -568 -246l-148 -124v-98l74 -74h25q108 0 419 123l50 -74q0 -49 -642 -247h-98z" />
<glyph unicode="&#xaa;" horiz-adv-x="758" />
<glyph unicode="&#xab;" />
<glyph unicode="&#xac;" horiz-adv-x="1196" />
<glyph unicode="&#xad;" horiz-adv-x="742" d="M0 872v239l40 40h617l20 -20h20q-26 -299 -80 -299h-577z" />
<glyph unicode="&#xae;" horiz-adv-x="1509" />
<glyph unicode="&#xaf;" horiz-adv-x="1131" />
<glyph unicode="&#xb0;" horiz-adv-x="819" />
<glyph unicode="&#xb1;" horiz-adv-x="1124" />
<glyph unicode="&#xb2;" horiz-adv-x="682" />
<glyph unicode="&#xb3;" horiz-adv-x="682" />
<glyph unicode="&#xb4;" horiz-adv-x="682" />
<glyph unicode="&#xb5;" horiz-adv-x="1180" />
<glyph unicode="&#xb6;" horiz-adv-x="1100" />
<glyph unicode="&#xb7;" horiz-adv-x="569" />
<glyph unicode="&#xb8;" horiz-adv-x="682" />
<glyph unicode="&#xb9;" horiz-adv-x="682" />
<glyph unicode="&#xba;" horiz-adv-x="748" />
<glyph unicode="&#xbb;" />
<glyph unicode="&#xbc;" horiz-adv-x="1708" />
<glyph unicode="&#xbd;" horiz-adv-x="1708" />
<glyph unicode="&#xbe;" horiz-adv-x="1708" />
<glyph unicode="&#xbf;" horiz-adv-x="1251" />
<glyph unicode="&#xc0;" horiz-adv-x="1366" />
<glyph unicode="&#xc1;" horiz-adv-x="1366" />
<glyph unicode="&#xc2;" horiz-adv-x="1366" />
<glyph unicode="&#xc3;" horiz-adv-x="1366" />
<glyph unicode="&#xc4;" horiz-adv-x="1366" />
<glyph unicode="&#xc5;" horiz-adv-x="1366" />
<glyph unicode="&#xc6;" horiz-adv-x="2048" />
<glyph unicode="&#xc7;" horiz-adv-x="1479" />
<glyph unicode="&#xc8;" horiz-adv-x="1366" />
<glyph unicode="&#xc9;" horiz-adv-x="1366" />
<glyph unicode="&#xca;" horiz-adv-x="1366" />
<glyph unicode="&#xcb;" horiz-adv-x="1366" />
<glyph unicode="&#xcc;" horiz-adv-x="569" />
<glyph unicode="&#xcd;" horiz-adv-x="569" />
<glyph unicode="&#xce;" horiz-adv-x="569" />
<glyph unicode="&#xcf;" horiz-adv-x="569" />
<glyph unicode="&#xd0;" horiz-adv-x="1479" />
<glyph unicode="&#xd1;" horiz-adv-x="1479" />
<glyph unicode="&#xd2;" horiz-adv-x="1593" />
<glyph unicode="&#xd3;" horiz-adv-x="1593" />
<glyph unicode="&#xd4;" horiz-adv-x="1593" />
<glyph unicode="&#xd5;" horiz-adv-x="1593" />
<glyph unicode="&#xd6;" horiz-adv-x="1593" />
<glyph unicode="&#xd7;" horiz-adv-x="1196" />
<glyph unicode="&#xd8;" horiz-adv-x="1593" />
<glyph unicode="&#xd9;" horiz-adv-x="1479" />
<glyph unicode="&#xda;" horiz-adv-x="1479" />
<glyph unicode="&#xdb;" horiz-adv-x="1479" />
<glyph unicode="&#xdc;" horiz-adv-x="1479" />
<glyph unicode="&#xdd;" horiz-adv-x="1366" />
<glyph unicode="&#xde;" horiz-adv-x="1366" />
<glyph unicode="&#xdf;" horiz-adv-x="1251" />
<glyph unicode="&#xe0;" />
<glyph unicode="&#xe1;" />
<glyph unicode="&#xe2;" />
<glyph unicode="&#xe3;" />
<glyph unicode="&#xe4;" />
<glyph unicode="&#xe5;" />
<glyph unicode="&#xe6;" horiz-adv-x="1821" />
<glyph unicode="&#xe7;" horiz-adv-x="1024" />
<glyph unicode="&#xe8;" />
<glyph unicode="&#xe9;" />
<glyph unicode="&#xea;" />
<glyph unicode="&#xeb;" />
<glyph unicode="&#xec;" horiz-adv-x="569" />
<glyph unicode="&#xed;" horiz-adv-x="569" />
<glyph unicode="&#xee;" horiz-adv-x="569" />
<glyph unicode="&#xef;" horiz-adv-x="569" />
<glyph unicode="&#xf0;" />
<glyph unicode="&#xf1;" />
<glyph unicode="&#xf2;" />
<glyph unicode="&#xf3;" />
<glyph unicode="&#xf4;" />
<glyph unicode="&#xf5;" />
<glyph unicode="&#xf6;" />
<glyph unicode="&#xf7;" horiz-adv-x="1124" />
<glyph unicode="&#xf8;" horiz-adv-x="1251" />
<glyph unicode="&#xf9;" />
<glyph unicode="&#xfa;" />
<glyph unicode="&#xfb;" />
<glyph unicode="&#xfc;" />
<glyph unicode="&#xfd;" horiz-adv-x="1024" />
<glyph unicode="&#xfe;" />
<glyph unicode="&#xff;" horiz-adv-x="1024" />
<glyph unicode="&#x152;" horiz-adv-x="2048" />
<glyph unicode="&#x153;" horiz-adv-x="1933" />
<glyph unicode="&#x178;" horiz-adv-x="1366" />
<glyph unicode="&#x2c6;" horiz-adv-x="682" />
<glyph unicode="&#x2dc;" horiz-adv-x="682" />
<glyph unicode="&#x2000;" horiz-adv-x="1007" />
<glyph unicode="&#x2001;" horiz-adv-x="2015" />
<glyph unicode="&#x2002;" horiz-adv-x="1007" />
<glyph unicode="&#x2003;" horiz-adv-x="2015" />
<glyph unicode="&#x2004;" horiz-adv-x="671" />
<glyph unicode="&#x2005;" horiz-adv-x="503" />
<glyph unicode="&#x2006;" horiz-adv-x="335" />
<glyph unicode="&#x2007;" horiz-adv-x="335" />
<glyph unicode="&#x2008;" horiz-adv-x="251" />
<glyph unicode="&#x2009;" horiz-adv-x="403" />
<glyph unicode="&#x200a;" horiz-adv-x="111" />
<glyph unicode="&#x2010;" horiz-adv-x="742" d="M0 872v239l40 40h617l20 -20h20q-26 -299 -80 -299h-577z" />
<glyph unicode="&#x2011;" horiz-adv-x="742" d="M0 872v239l40 40h617l20 -20h20q-26 -299 -80 -299h-577z" />
<glyph unicode="&#x2012;" horiz-adv-x="742" d="M0 872v239l40 40h617l20 -20h20q-26 -299 -80 -299h-577z" />
<glyph unicode="&#x2013;" />
<glyph unicode="&#x2014;" horiz-adv-x="2048" />
<glyph unicode="&#x2018;" horiz-adv-x="434" d="M14 1824l23 25l305 -74l-47 -74v-25l71 -296v-25q-265 0 -352 469z" />
<glyph unicode="&#x2019;" horiz-adv-x="391" d="M0 1355v25l74 296v25l-49 74l321 74l25 -25q-93 -469 -371 -469z" />
<glyph unicode="&#x201a;" horiz-adv-x="455" />
<glyph unicode="&#x201c;" horiz-adv-x="712" d="M-8 1790v40l101 20h181l20 -20h20l-80 -463h-61zM395 1669v100q0 41 221 81l20 -20q-35 -564 -100 -564q-141 163 -141 403z" />
<glyph unicode="&#x201d;" horiz-adv-x="742" d="M-8 1423v19q131 197 151 414l150 19l38 -113q0 -213 -339 -339zM388 1423v19q46 288 131 395h132l19 -18h19q0 -196 -283 -396h-18z" />
<glyph unicode="&#x201e;" horiz-adv-x="682" />
<glyph unicode="&#x2022;" horiz-adv-x="717" />
<glyph unicode="&#x2026;" horiz-adv-x="2048" />
<glyph unicode="&#x202f;" horiz-adv-x="403" />
<glyph unicode="&#x2039;" horiz-adv-x="682" />
<glyph unicode="&#x203a;" horiz-adv-x="682" />
<glyph unicode="&#x205f;" horiz-adv-x="503" />
<glyph unicode="&#x20ac;" />
<glyph unicode="&#x2122;" horiz-adv-x="1131" d="M15 1588q0 201 374 201l115 29l29 -29v-57q0 -58 -202 -86v-173q0 -155 -115 -201l-28 29h-29l57 287h-28l-144 -29zM533 1272q63 575 172 575h29q57 0 57 -115l29 -29h29q21 144 86 144h144l-115 -546h-58l-57 57l29 173v28h-29q0 -86 -58 -86q-57 0 -57 86l-29 29h-29 q0 -345 -86 -345l-29 29h-28z" />
<glyph unicode="&#x25fc;" horiz-adv-x="1860" d="M0 0v1860h1860v-1860h-1860z" />
</font>
</defs>
</svg>
