<?xml version="1.0" standalone="no"?>
<!DOCTYPE svg PUBLIC "-//W3C//DTD SVG 1.1//EN" "http://www.w3.org/Graphics/SVG/1.1/DTD/svg11.dtd" >
<svg xmlns="http://www.w3.org/2000/svg">
<metadata></metadata>
<defs>
<font id="tw_cen_mt_condensed_extra_bRg" horiz-adv-x="1004" >
<font-face units-per-em="2048" ascent="1638" descent="-410" />
<missing-glyph horiz-adv-x="502" />
<glyph horiz-adv-x="2048" />
<glyph horiz-adv-x="2048" />
<glyph unicode="&#xd;" horiz-adv-x="502" />
<glyph unicode=" "  horiz-adv-x="502" />
<glyph unicode="&#x09;" horiz-adv-x="502" />
<glyph unicode="&#xa0;" horiz-adv-x="502" />
<glyph unicode="!" horiz-adv-x="618" d="M143 131q0 68 49 116t117 48t117 -48.5t49 -115.5q0 -69 -49 -117.5t-117 -48.5q-69 0 -117.5 48.5t-48.5 117.5zM162 377v958h291v-958h-291z" />
<glyph unicode="&#x22;" horiz-adv-x="971" d="M106 1124v248h308v-248l-47 -274h-207zM559 1124v248h305v-248l-45 -274h-209z" />
<glyph unicode="#" horiz-adv-x="1368" d="M78 336v188h209l63 303h-272v191h309l84 383h188l-84 -383h355l82 383h190l-82 -383h168v-191h-205l-63 -303h268v-188h-303l-84 -379h-188l82 379h-359l-78 -379h-190l80 379h-170zM477 526h354l64 301h-356z" />
<glyph unicode="$" horiz-adv-x="1110" d="M61 154l175 219q111 -115 258 -144v336q-182 46 -277.5 160t-95.5 264q0 159 92.5 268.5t282.5 118.5v135h166v-137q201 -19 348 -153l-183 -228q-100 84 -168 105v-289q381 -116 381 -430q0 -158 -97 -266t-286 -142v-174h-163v172h-27q-92 0 -215 52t-191 133zM401 987 q0 -94 93 -127v246q-93 -32 -93 -119zM659 246q103 26 103 129q0 94 -103 131v-260z" />
<glyph unicode="%" horiz-adv-x="1686" d="M59 1010q0 172 72 267t201 95q130 0 203 -93t73 -259q0 -175 -72 -272t-202 -97q-128 0 -201.5 95.5t-73.5 263.5zM256 1018q0 -103 17.5 -149t60.5 -46q41 0 58.5 42t17.5 134q0 108 -16.5 154.5t-59.5 46.5t-60.5 -43t-17.5 -139zM336 -72l844 1448h184l-846 -1448 h-182zM1085 299q0 166 74 259t205 93t204.5 -96t73.5 -268q0 -166 -74 -260.5t-204 -94.5q-135 0 -207 94.5t-72 272.5zM1288 313q0 -114 15.5 -161.5t60.5 -47.5q42 0 59 41.5t17 137.5q0 104 -18 150t-58 46q-42 0 -59 -38.5t-17 -127.5z" />
<glyph unicode="&#x26;" horiz-adv-x="1118" d="M63 307q0 110 57 187t177 170q-94 117 -124 195t-30 157q0 159 102 257.5t267 98.5q153 0 263 -102t110 -244q0 -101 -52 -193.5t-174 -197.5l119 -160l123 119l174 -219l-133 -127l178 -248h-342l-51 72q-143 -109 -291 -109q-158 0 -265.5 99t-107.5 245zM352 317 q0 -36 25.5 -58.5t64.5 -22.5q53 0 127 53l-120 166q-97 -73 -97 -138zM420 1001q0 -58 84 -153q108 93 108 168q0 35 -27.5 58.5t-70.5 23.5q-38 0 -66 -28.5t-28 -68.5z" />
<glyph unicode="'" horiz-adv-x="487" d="M93 1119v248h307v-248l-47 -274h-207z" />
<glyph unicode="(" horiz-adv-x="512" d="M115 502q0 531 227 901l152 -78q-213 -332 -213 -815q0 -220 55 -437.5t151 -375.5l-147 -76q-112 173 -168.5 415.5t-56.5 465.5z" />
<glyph unicode=")" horiz-adv-x="512" d="M37 -301q211 344 211 809q0 482 -207 817l149 80q224 -385 224 -897t-228 -887z" />
<glyph unicode="*" horiz-adv-x="748" d="M82 1133q0 33 24 59.5t56 26.5q39 0 79.5 -30t73 -65.5t62.5 -50.5q-18 48 -35 84q-45 99 -45 125q0 38 25 64t61 26q37 0 60.5 -24t23.5 -62q0 -23 -4.5 -36.5t-30.5 -71.5q-35 -75 -39 -101q37 23 80 66q42 39 67.5 54t61.5 15q33 0 58.5 -23t25.5 -61q0 -81 -121 -81 q-33 0 -69 6q-63 8 -97 8v-4q161 -93 180 -120.5t19 -59.5q0 -34 -24.5 -57t-59.5 -23q-47 0 -70.5 40t-42.5 142q0 10 -18 72q-10 -27 -21 -80q-25 -124 -51 -148t-61 -24q-38 0 -62 23.5t-24 60.5q0 66 125 127q23 11 80 43v4h-56q-24 0 -49 -4q-49 -6 -69 -6 q-49 0 -81 24.5t-32 61.5z" />
<glyph unicode="+" horiz-adv-x="1366" d="M125 569v215h450v449h213v-449h453v-215h-453v-448h-213v448h-450z" />
<glyph unicode="," horiz-adv-x="555" d="M45 -268l178 573h283l-262 -573h-199z" />
<glyph unicode="-" horiz-adv-x="641" d="M100 334v250h461v-250h-461z" />
<glyph unicode="." horiz-adv-x="555" d="M119 135q0 68 48.5 117t117.5 49t118.5 -48.5t49.5 -115.5t-50.5 -117.5t-117.5 -50.5q-69 0 -117.5 48.5t-48.5 117.5z" />
<glyph unicode="/" horiz-adv-x="961" d="M55 -377l672 1786h168l-674 -1786h-166z" />
<glyph unicode="0" d="M59 678q0 330 115 511t322 181h4q217 0 329.5 -179t112.5 -527q0 -339 -114.5 -519t-327.5 -180q-202 0 -321.5 168.5t-119.5 544.5zM350 680q0 -428 148 -428q80 0 115.5 94.5t35.5 300.5q0 227 -35.5 330.5t-117.5 103.5q-146 0 -146 -401z" />
<glyph unicode="1" d="M215 1055v280h459v-1335h-289v1055h-170z" />
<glyph unicode="2" d="M78 0l436 745q80 134 80 244q0 55 -24 90t-60 35q-57 0 -74.5 -45.5t-17.5 -179.5v-49h-293q0 150 12.5 235t52 150.5t121 105t193.5 39.5q185 0 284 -97t99 -280q0 -94 -38 -202.5t-114 -238.5l-164 -280h269v-272h-762z" />
<glyph unicode="3" d="M127 342h287q2 -123 98 -123q94 0 94 168q0 78 -27.5 108.5t-97.5 30.5h-92v277h100q64 0 91.5 33.5t27.5 109.5q0 164 -92 164q-43 0 -57.5 -34t-14.5 -120v-28h-292q2 115 20.5 179t64 125t119.5 98.5t160 37.5q154 0 254 -110.5t100 -280.5q0 -198 -153 -311 q180 -93 180 -332q0 -95 -44.5 -189.5t-129.5 -137t-199 -42.5q-171 0 -280 100.5t-117 276.5z" />
<glyph unicode="4" d="M104 266v217l394 852h311v-827h104v-242h-104v-266h-277v266h-428zM334 508h198v424h-4z" />
<glyph unicode="5" d="M127 25l39 256q145 -58 217 -58q90 0 139 59t49 169q0 94 -64.5 145t-184.5 51q-54 0 -140 -18l97 708h567l-6 -268h-344l-29 -203q192 -6 293.5 -119.5t101.5 -310.5q0 -216 -119 -343.5t-321 -127.5q-113 0 -295 60z" />
<glyph unicode="6" d="M80 422q0 251 229 725l92 190h318q-171 -354 -232 -503q13 1 43 8q34 6 58 6q162 0 253 -109t91 -305q0 -215 -118 -342t-316 -127q-186 0 -302 126.5t-116 330.5zM371 416q0 -85 36.5 -137t96.5 -52h2q62 0 100.5 53.5t38.5 139.5q0 83 -40 139.5t-97 56.5 q-60 0 -98.5 -56t-38.5 -144z" />
<glyph unicode="7" d="M162 0l395 1061h-369v274h785l-504 -1335h-307z" />
<glyph unicode="8" d="M100 354q0 45 6 84.5t18.5 74t31.5 65t44.5 56.5t60 48.5t71.5 44.5v2h-2q0 2 -2 2q0 2 -2 2q-60 28 -99.5 62t-67.5 96.5t-28 144.5q0 143 106 238.5t265 95.5q162 0 265 -97t103 -249q0 -100 -49.5 -170t-154.5 -125q114 -49 176.5 -149t62.5 -226q0 -177 -109 -283 t-292 -106q-187 0 -295.5 105t-108.5 284zM389 395q0 -192 115 -192q106 0 106 176q0 196 -108 196q-113 0 -113 -180zM424 997q0 -78 18.5 -110.5t61.5 -32.5q74 0 74 127q0 145 -76 145q-78 0 -78 -129z" />
<glyph unicode="9" d="M82 907q0 209 117.5 337t308.5 128q195 0 311.5 -124t116.5 -333q0 -78 -26.5 -194t-67 -220.5t-228.5 -500.5h-317l147 307l86 201q-69 -21 -120 -21q-147 0 -237.5 115.5t-90.5 304.5zM369 926q0 -94 38.5 -149.5t102.5 -55.5q55 0 95 58t40 141q0 87 -36.5 139.5 t-96.5 52.5q-61 0 -102 -53t-41 -133z" />
<glyph unicode=":" horiz-adv-x="555" d="M113 135q0 67 48 115.5t115 48.5q71 0 119.5 -48t48.5 -118q0 -67 -49.5 -115.5t-118.5 -48.5q-67 0 -115 49t-48 117zM113 651q0 68 48.5 115t119.5 47q67 0 116 -49.5t49 -116.5t-48.5 -115.5t-116.5 -48.5q-70 0 -119 49.5t-49 118.5z" />
<glyph unicode=";" horiz-adv-x="555" d="M-49 -268l184 575h279l-262 -575h-201zM117 649q0 70 48.5 119t117.5 49t119.5 -47.5t50.5 -114.5q0 -69 -50.5 -118.5t-119.5 -49.5q-65 0 -115.5 50t-50.5 112z" />
<glyph unicode="&#x3c;" horiz-adv-x="1366" d="M127 580v192l1112 465v-231l-819 -330l819 -328v-233z" />
<glyph unicode="=" horiz-adv-x="1366" d="M127 332v215h1112v-215h-1112zM127 809v215h1112v-215h-1112z" />
<glyph unicode="&#x3e;" horiz-adv-x="1366" d="M127 115v233l819 328l-819 330v231l1112 -463v-194z" />
<glyph unicode="?" horiz-adv-x="961" d="M68 922q8 229 122.5 339.5t290.5 110.5q184 0 294 -113t110 -303q0 -286 -234 -409v-174h-303v340q112 3 161.5 50.5t49.5 166.5q0 162 -84 162q-89 0 -92 -170h-315zM342 129q0 67 49 115.5t117 48.5q72 0 119 -46.5t47 -117.5q0 -68 -48.5 -116t-117.5 -48 q-68 0 -117 48.5t-49 115.5z" />
<glyph unicode="@" horiz-adv-x="1729" d="M123 449q0 234 109 439.5t295 325t395 119.5q306 0 498 -204.5t192 -520.5q0 -228 -99.5 -367t-216.5 -188t-188 -49q-128 0 -143 119q-101 -123 -244 -123q-133 0 -218 108.5t-85 276.5q0 214 106 355t262 141q155 0 252 -127l15 108h239l-55 -395q-27 -196 -29 -211.5 t-2 -22.5q0 -18 13 -18q86 0 171 111.5t85 289.5q0 253 -156.5 417.5t-394.5 164.5q-271 0 -467.5 -220t-196.5 -529q0 -317 179 -514t452 -197q121 0 248.5 44.5t222.5 119.5l39 35h184q-138 -161 -319 -247.5t-367 -86.5q-343 0 -559.5 231t-216.5 615zM659 408 q0 -85 40.5 -142t103.5 -57q80 0 138 72.5t58 185.5q0 84 -48 143.5t-117 59.5q-77 0 -126 -74.5t-49 -187.5z" />
<glyph unicode="A" horiz-adv-x="1087" d="M29 0l354 1335h340l354 -1335h-315l-51 223h-320l-53 -223h-309zM446 463h207q-68 298 -102 567h-4q-36 -277 -101 -567z" />
<glyph unicode="B" horiz-adv-x="1044" d="M143 0v1335h308q269 0 387 -105.5t118 -268.5q0 -176 -172 -283q195 -77 195 -293q0 -173 -121 -279t-319 -106h-396zM446 260q115 2 172.5 35.5t57.5 110.5q0 143 -205 143h-25v-289zM446 791q203 5 203 141q0 81 -48.5 113t-154.5 34v-288z" />
<glyph unicode="C" horiz-adv-x="897" d="M82 684q0 299 165 493.5t417 194.5q98 0 180 -26v-318q-87 29 -164 29q-118 0 -196 -108t-78 -275q0 -180 78.5 -284.5t209.5 -104.5q64 0 150 30v-317q-96 -31 -172 -31q-263 0 -426.5 197.5t-163.5 519.5z" />
<glyph unicode="D" horiz-adv-x="1087" d="M143 0v1335h283q294 0 447 -167.5t153 -489.5q0 -244 -75.5 -394t-211 -217t-299.5 -67h-297zM446 285q138 12 195 97.5t57 281.5q0 116 -20 196.5t-59.5 124t-77 53.5t-95.5 13v-766z" />
<glyph unicode="E" horiz-adv-x="854" d="M143 0v1335h613v-284h-310v-246h269v-277h-269v-243h312v-285h-615z" />
<glyph unicode="F" horiz-adv-x="811" d="M143 0v1335h613v-286h-310v-244h273v-277h-273v-528h-303z" />
<glyph unicode="G" horiz-adv-x="1141" d="M82 674q0 343 132.5 520.5t387.5 177.5q286 0 414 -305l-289 -119q-36 64 -67 93.5t-85 29.5q-92 0 -130.5 -96.5t-38.5 -312.5q0 -201 43.5 -295.5t138.5 -94.5q152 0 157 217h-141v259h457v-224q0 -260 -125.5 -408.5t-343.5 -148.5q-244 0 -377 183.5t-133 523.5z" />
<glyph unicode="H" horiz-adv-x="1161" d="M143 0v1335h303v-495h269v495h303v-1335h-303v555h-269v-555h-303z" />
<glyph unicode="I" horiz-adv-x="610" d="M154 0v1335h303v-1335h-303z" />
<glyph unicode="J" horiz-adv-x="725" d="M41 18v304q91 -60 131 -60q115 0 115 146v927h303v-960q0 -185 -96.5 -298.5t-255.5 -113.5q-100 0 -197 55z" />
<glyph unicode="K" horiz-adv-x="1063" d="M143 0v1335h303v-628h5l286 628h318l-310 -682l297 -653h-333l-258 555h-5v-555h-303z" />
<glyph unicode="L" horiz-adv-x="748" d="M143 0v1335h303v-1026h240v-309h-543z" />
<glyph unicode="M" horiz-adv-x="1526" d="M96 0l144 1335h383q82 -432 129 -743l33 207q20 121 43 236l59 300h391l152 -1335h-300l-81 918l-187 -918h-205l-196 920l-78 -920h-287z" />
<glyph unicode="N" horiz-adv-x="1270" d="M143 0v1335h306l385 -770l-11 144v626h303v-1335h-311l-377 758l8 -166v-592h-303z" />
<glyph unicode="O" horiz-adv-x="1147" d="M82 688q0 323 127.5 503.5t355.5 180.5q243 0 371.5 -181t128.5 -517t-126.5 -521.5t-360.5 -185.5q-242 0 -369 185.5t-127 535.5zM403 684q0 -248 41.5 -331t120.5 -83q85 0 130.5 83t45.5 325q0 391 -174 391q-164 0 -164 -385z" />
<glyph unicode="P" horiz-adv-x="1042" d="M143 0v1335h375q198 0 318 -113t120 -298q0 -195 -121.5 -305.5t-336.5 -110.5h-52v-508h-303zM446 764q102 2 150.5 39t48.5 117q0 86 -47 121.5t-152 37.5v-315z" />
<glyph unicode="Q" horiz-adv-x="1147" d="M82 688q0 323 127.5 503.5t355.5 180.5q243 0 371.5 -181t128.5 -517q0 -319 -115 -504l129 -162l-172 -127l-110 139q-95 -53 -219 -53q-242 0 -369 185.5t-127 535.5zM403 684q0 -248 41.5 -331t120.5 -83q13 0 33 4l-119 152l170 127l78 -100q14 70 14 225 q0 391 -174 391q-164 0 -164 -385z" />
<glyph unicode="R" horiz-adv-x="1044" d="M143 0v1335h353q214 0 338 -110t124 -299q0 -97 -47 -187.5t-137 -136.5l242 -602h-320l-245 608h-5v-608h-303zM446 760q201 4 201 141q0 93 -46.5 133t-154.5 43v-317z" />
<glyph unicode="S" horiz-adv-x="897" d="M92 981q0 173 109 282t282 109q128 0 254 -55v-299q-135 74 -219 74q-56 0 -88.5 -27.5t-32.5 -75.5q0 -84 151 -189q90 -62 182.5 -174.5t92.5 -260.5q0 -173 -121 -286.5t-307 -113.5q-127 0 -252 60v311q144 -84 242 -84q57 0 90 31.5t33 83.5q0 40 -26.5 75t-91.5 85 q-157 120 -227.5 223.5t-70.5 230.5z" />
<glyph unicode="T" horiz-adv-x="811" d="M43 1030v305h723v-305h-209v-1030h-307v1030h-207z" />
<glyph unicode="U" horiz-adv-x="1147" d="M135 506v829h311v-940q0 -66 35 -104.5t94 -38.5q61 0 96.5 41t35.5 113v929h309v-876q0 -179 -47 -287t-138.5 -158.5t-255.5 -50.5q-242 0 -341 124t-99 419z" />
<glyph unicode="V" horiz-adv-x="1130" d="M20 1335h316l165 -590q47 -175 64 -299h4q15 109 33 179l184 710h324l-401 -1335h-281z" />
<glyph unicode="W" horiz-adv-x="1552" d="M20 1335h291l172 -805h4l156 805h264l158 -796h4l164 796h299l-320 -1335h-274l-127 597q-21 98 -35 189h-4q-25 -155 -36 -207l-126 -579h-270z" />
<glyph unicode="X" horiz-adv-x="1051" d="M23 0l329 694l-305 641h336q129 -314 141 -360h4q2 14 38 102l102 258h336l-310 -637l336 -698h-336q-161 377 -168 406h-4q-17 -64 -45 -127l-123 -279h-331z" />
<glyph unicode="Y" horiz-adv-x="1047" d="M16 1335h340q113 -288 164 -444h4q51 160 162 444h348l-358 -731v-604h-307v604z" />
<glyph unicode="Z" horiz-adv-x="981" d="M18 0l461 1049h-395v286h862l-465 -1050h424v-285h-887z" />
<glyph unicode="[" horiz-adv-x="532" d="M147 -379v1790h373v-139h-207v-1512h207v-139h-373z" />
<glyph unicode="\" horiz-adv-x="961" d="M66 1409h167l672 -1786h-166z" />
<glyph unicode="]" horiz-adv-x="532" d="M33 -242h207v1514h-207v139h373v-1790h-373v137z" />
<glyph unicode="^" horiz-adv-x="1196" d="M37 657l465 834h192l465 -834h-231l-330 588l-328 -588h-233z" />
<glyph unicode="_" horiz-adv-x="1024" d="M-14 -152h1052v-102h-1052v102z" />
<glyph unicode="`" horiz-adv-x="682" d="M43 1350h315l138 -299h-179z" />
<glyph unicode="a" horiz-adv-x="969" d="M59 467q0 221 79 352t208 131q69 0 117 -34.5t100 -110.5h4v115h291v-920h-289v121h-4q-53 -78 -102.5 -115t-116.5 -37q-131 0 -209 134t-78 364zM344 465q0 -238 117 -238q108 0 108 238q0 229 -112 229q-113 0 -113 -229z" />
<glyph unicode="b" horiz-adv-x="971" d="M111 0v1409h290v-600h5q53 73 99.5 107t119.5 34q122 0 204 -127.5t82 -365.5q0 -220 -78.5 -354t-203.5 -134q-130 0 -223 150h-5v-119h-290zM401 473q0 -127 27.5 -185.5t87.5 -58.5q107 0 107 236q0 229 -117 229q-105 0 -105 -221z" />
<glyph unicode="c" horiz-adv-x="670" d="M59 467q0 215 96 350t248 135q106 0 209 -75v-238q-59 31 -106 31q-70 0 -113 -56.5t-43 -150.5q0 -99 42 -156t114 -57q44 0 104 31v-240q-104 -70 -209 -70q-155 0 -248.5 134.5t-93.5 361.5z" />
<glyph unicode="d" horiz-adv-x="969" d="M59 461q0 223 80 356t211 133q119 0 219 -137v596h289v-1409h-291v121h-4q-97 -152 -219 -152q-128 0 -206.5 134t-78.5 358zM346 453q0 -107 30.5 -165.5t84.5 -58.5q50 0 79 62t29 176q0 227 -110 227q-113 0 -113 -241z" />
<glyph unicode="e" horiz-adv-x="872" d="M59 471q0 218 102 349.5t271 131.5q102 0 196 -63.5t137 -168.5t48 -331h-485q6 -205 114 -205q37 0 66 27t35 70h245q-70 -310 -350 -310q-175 0 -277 133t-102 367zM332 547h211q-3 97 -27 143.5t-76 46.5q-58 0 -83 -45t-25 -145z" />
<glyph unicode="f" horiz-adv-x="575" d="M33 678v242h102v213q0 129 83.5 202.5t232.5 73.5h116v-287h-73q-31 0 -50.5 -22.5t-19.5 -59.5v-120h143v-242h-143v-678h-289v678h-102z" />
<glyph unicode="g" horiz-adv-x="973" d="M59 475q0 221 80 347t219 126q124 0 209 -125h4v97h291v-852q0 -117 -41.5 -222t-146.5 -165t-230 -60t-235 67t-143 224h260q45 -70 112 -70q57 0 96 44.5t39 109.5v131q-85 -125 -202 -125q-148 0 -230 123.5t-82 349.5zM342 498q0 -252 117 -252q114 0 114 233 q0 223 -112 223q-55 0 -87 -54t-32 -150z" />
<glyph unicode="h" horiz-adv-x="967" d="M111 0v1409h290v-608h5q107 149 247 149q100 0 155.5 -65.5t55.5 -184.5v-700h-291v561q0 54 -21.5 84.5t-59.5 30.5q-91 0 -91 -123v-553h-290z" />
<glyph unicode="i" horiz-adv-x="528" d="M111 1196q0 64 45 109t108 45q64 0 109 -45t45 -109q0 -63 -45 -108.5t-109 -45.5q-62 0 -107.5 45.5t-45.5 108.5zM119 0v920h291v-920h-291z" />
<glyph unicode="j" horiz-adv-x="528" d="M111 1196q0 64 45.5 110t109.5 46t110 -46t46 -110q0 -63 -46.5 -109.5t-109.5 -46.5t-109 46.5t-46 109.5zM119 -379v1299h291v-1299h-291z" />
<glyph unicode="k" horiz-adv-x="981" d="M111 0v1409h290v-817h5l198 328h348l-295 -412l301 -508h-335l-217 449h-5v-449h-290z" />
<glyph unicode="l" horiz-adv-x="528" d="M119 0v1409h291v-1409h-291z" />
<glyph unicode="m" horiz-adv-x="1430" d="M111 0v920h290v-113q124 145 252 145q154 0 199 -159q70 83 130.5 121t141.5 38q203 0 203 -284v-668h-291v543q0 133 -86 133q-88 0 -88 -131v-545h-291v559q0 51 -23.5 84t-60.5 33q-39 0 -62.5 -32t-23.5 -87v-557h-290z" />
<glyph unicode="n" horiz-adv-x="967" d="M111 0v920h290v-125h5q102 155 249 155q96 0 152.5 -64t56.5 -173v-713h-291v567q0 47 -22 77t-57 30q-93 0 -93 -117v-557h-290z" />
<glyph unicode="o" horiz-adv-x="924" d="M59 451q0 236 102.5 368.5t295.5 132.5q199 0 303 -132.5t104 -368.5q0 -231 -108 -357.5t-299 -126.5q-183 0 -290.5 129t-107.5 355zM348 459q0 -232 111 -232q57 0 85.5 53t28.5 181q0 127 -28 178t-84 51q-55 0 -84 -49.5t-29 -181.5z" />
<glyph unicode="p" horiz-adv-x="975" d="M111 -379v1299h290v-117h5q97 143 219 143q131 0 210.5 -133.5t79.5 -359.5q0 -218 -81.5 -352t-208.5 -134q-134 0 -219 154h-5v-500h-290zM401 461q0 -236 109 -236q115 0 115 238q0 227 -115 227q-109 0 -109 -229z" />
<glyph unicode="q" horiz-adv-x="973" d="M59 453q0 228 79 361.5t214 133.5q121 0 215 -143h4v115h291v-1299h-291v488q-58 -73 -107 -107.5t-114 -34.5q-129 0 -210 133t-81 353zM348 446q0 -104 29.5 -161.5t83.5 -57.5q110 0 110 232q0 231 -110 231q-113 0 -113 -244z" />
<glyph unicode="r" horiz-adv-x="705" d="M111 0v920h278v-154h4q104 180 219 180q17 0 47 -6v-285q-53 9 -98 9q-160 0 -160 -207v-457h-290z" />
<glyph unicode="s" horiz-adv-x="784" d="M45 82l100 215q149 -88 215 -88q36 0 60 18.5t24 44.5q0 28 -20 41t-150 70q-104 46 -150 108.5t-46 155.5q0 133 91.5 219t233.5 86q138 0 338 -110l-112 -207q-130 80 -213 80q-72 0 -72 -58q0 -28 26.5 -48.5t96.5 -45.5q131 -46 190.5 -110t59.5 -162 q0 -140 -94 -230t-240 -90q-158 0 -338 111z" />
<glyph unicode="t" horiz-adv-x="588" d="M37 680v240h110v245h291v-245h113v-242h-115v-678h-289v680h-110z" />
<glyph unicode="u" horiz-adv-x="954" d="M104 354v566h291v-592q0 -46 21.5 -76.5t58.5 -30.5q84 0 84 123v576h291v-533q0 -203 -95 -310.5t-274 -107.5q-200 0 -288.5 110t-88.5 275z" />
<glyph unicode="v" horiz-adv-x="850" d="M23 920h284l115 -498h4l115 498h288l-286 -920h-236z" />
<glyph unicode="w" horiz-adv-x="1288" d="M18 920h287q100 -436 113 -517h4l98 517h246l98 -508h4q24 116 33 155l84 353h287l-285 -920h-219q-112 412 -125 496h-4q-9 -70 -121 -496h-217z" />
<glyph unicode="x" horiz-adv-x="961" d="M20 920h332q112 -239 123 -295h4q16 77 125 295h334l-295 -463l297 -457h-326q-97 207 -135 307h-4q-4 -35 -58 -151l-73 -156h-321l290 453z" />
<glyph unicode="y" horiz-adv-x="895" d="M20 920h287l73 -239q38 -126 66 -247h5q23 115 38 165l97 321h291l-392 -1299h-290l118 391z" />
<glyph unicode="z" horiz-adv-x="811" d="M51 0l289 680h-252v240h672l-291 -680h272v-240h-690z" />
<glyph unicode="{" horiz-adv-x="797" d="M63 410v241q96 4 139.5 38.5t62 104t18.5 216.5v34q0 165 19.5 238t67.5 120.5t119 68t205 20.5h54v-240h-13q-83 0 -121 -10t-55.5 -38.5t-19 -201t-18 -245.5t-50 -123.5t-115.5 -102.5q50 -28 83 -63t54.5 -82.5t30.5 -93.5t14 -189t5 -149q0 -59 16 -89.5t51.5 -42 t122.5 -11.5h15v-240h-54q-176 0 -257 42t-117.5 116t-36.5 288v35q0 135 -12.5 193t-42.5 96.5t-64.5 53t-100.5 16.5z" />
<glyph unicode="|" horiz-adv-x="1204" d="M494 -276v1701h217v-1701h-217z" />
<glyph unicode="}" horiz-adv-x="797" d="M49 -190h14q71 0 100 4.5t51.5 21.5t31 41.5t9.5 79.5l3 117q5 161 17.5 227.5t52.5 126.5t112 102q-80 51 -115 102.5t-47 111t-20 241.5q-4 151 -8.5 183.5t-34.5 57.5t-154 25h-12v240h53q144 0 214 -23t115.5 -71t64 -120t18.5 -233v-34q0 -135 12 -193t42 -96.5 t65 -53t100 -16.5v-241q-95 -4 -138.5 -39t-62 -104t-18.5 -216v-35q0 -196 -24.5 -261t-63 -98t-98.5 -60t-226 -27h-53v240z" />
<glyph unicode="~" horiz-adv-x="1343" d="M117 547v223q159 137 317 137q60 0 118.5 -19t152.5 -65q89 -43 136.5 -59t92.5 -16q129 0 293 147v-223q-168 -140 -303 -140q-68 0 -127.5 20.5t-178.5 78.5q-132 63 -198 63q-143 0 -303 -147z" />
<glyph unicode="&#xa1;" horiz-adv-x="618" d="M143 905q0 71 47 119.5t115 48.5h4q71 0 120.5 -49t49.5 -117q0 -70 -48.5 -117t-121.5 -47q-69 0 -117.5 47.5t-48.5 114.5zM168 -293v959h291v-959h-291z" />
<glyph unicode="&#xa2;" horiz-adv-x="725" d="M25 -383l143 477q-60 92 -79 167t-19 185q0 194 57 307t136.5 155t148.5 42q4 0 20 -2l141 461h123l-151 -489q40 -18 78 -50v-235q-54 33 -105 33q-71 0 -114.5 -58t-43.5 -155q0 -94 44 -150.5t114 -56.5q47 0 103 28v-237q-110 -70 -207 -70q-62 0 -146 35l-118 -387 h-125z" />
<glyph unicode="&#xa3;" d="M37 156q0 85 51 139.5t131 54.5q50 0 98 -20q-8 147 -55 252h-190v190h127q-43 121 -43 225q0 171 94 273t250 102q175 0 284 -107.5t109 -314.5h-283q-7 150 -98 150q-34 0 -54 -29t-20 -78q0 -85 47 -219h185v-190h-150q6 -45 6 -101q0 -108 -28 -219q51 -16 80 -16 q59 0 84 39t26 123h285q0 -274 -85.5 -358.5t-189.5 -84.5q-82 0 -144 26.5t-140 84.5q-80 -111 -189 -111q-77 0 -132.5 56t-55.5 133zM160 168q0 -26 17.5 -42.5t43.5 -16.5q46 0 82 79q-35 48 -82 48q-27 0 -44 -19t-17 -49z" />
<glyph unicode="&#xa4;" horiz-adv-x="1425" d="M158 295l131 129q-74 121 -74 252t74 252l-131 131l139 143l133 -133q123 74 252 74t254 -74l131 133l141 -143l-131 -131q72 -121 72 -252q0 -133 -72 -252l131 -129l-141 -141l-131 129q-120 -74 -254 -74q-133 0 -252 74l-129 -129zM416 676q0 -111 78 -189.5 t188 -78.5q111 0 189.5 78.5t78.5 189.5t-78 188.5t-190 77.5q-110 0 -188 -78t-78 -188z" />
<glyph unicode="&#xa5;" horiz-adv-x="1087" d="M45 604v154h281l-105 211h-176v153h105l-105 213h340l166 -415l164 415h348l-105 -213h105v-153h-178l-105 -211h283v-154h-358v-604h-308v604h-352z" />
<glyph unicode="&#xa6;" horiz-adv-x="1204" d="M494 -276v729h217v-729h-217zM494 694v731h217v-731h-217z" />
<glyph unicode="&#xa7;" horiz-adv-x="1087" d="M94 500q0 101 52.5 174t162.5 135q-78 69 -113.5 129.5t-35.5 144.5q0 126 108.5 207.5t276.5 81.5q162 0 283 -82t147 -231h-262q-40 94 -152 94q-53 0 -85 -21.5t-32 -56.5q0 -38 37.5 -69.5t132.5 -89.5q254 -155 313.5 -244t59.5 -197q0 -198 -223 -303 q158 -119 158 -268q0 -131 -106 -216t-271 -85q-168 0 -288.5 83.5t-145.5 229.5h260q38 -94 153 -94q51 0 84 22t33 56q0 30 -28 54.5t-126 87.5q-190 122 -252.5 174.5t-101.5 123t-39 160.5zM358 532q0 -60 49 -111.5t195 -139.5q123 57 123 168q0 44 -31.5 88.5 t-224.5 158.5q-58 -40 -84.5 -76t-26.5 -88z" />
<glyph unicode="&#xa8;" horiz-adv-x="682" d="M-20 1192q0 57 39 96t96 39q56 0 95.5 -39t39.5 -96t-39.5 -96t-95.5 -39q-57 0 -96 39t-39 96zM432 1192q0 57 39.5 96t95.5 39q57 0 96 -39t39 -96t-39 -96t-96 -39q-56 0 -95.5 39t-39.5 96z" />
<glyph unicode="&#xa9;" horiz-adv-x="1642" d="M57 727q0 315 224.5 539.5t539.5 224.5t539.5 -224.5t224.5 -539.5q0 -204 -102.5 -381t-280 -279t-381.5 -102q-314 0 -539 224.5t-225 537.5zM205 727q0 -253 181 -433.5t435 -180.5t435.5 180.5t181.5 433.5q0 255 -181.5 435.5t-435.5 180.5t-435 -180.5t-181 -435.5 zM410 729q0 185 118.5 306.5t298.5 121.5q141 0 241 -73t128 -203l-197 -31q-35 160 -186 160q-83 0 -131.5 -74t-48.5 -203q0 -119 23 -174t65.5 -86t99.5 -31q138 0 178 193l205 -49q-87 -289 -377 -289q-186 0 -301.5 119.5t-115.5 312.5z" />
<glyph unicode="&#xaa;" horiz-adv-x="641" d="M49 1051q0 145 50.5 233t133.5 88q82 0 144 -96h4v78h188v-598h-186v75h-4q-38 -51 -68 -74.5t-73 -23.5q-86 0 -137.5 85.5t-51.5 232.5zM236 1051q0 -148 73 -148q74 0 74 154q0 149 -76 149q-71 0 -71 -155z" />
<glyph unicode="&#xab;" horiz-adv-x="1024" d="M74 571l198 492h238l-201 -490l197 -491h-236zM557 571l201 490h239l-204 -492l200 -489h-239z" />
<glyph unicode="&#xac;" horiz-adv-x="1366" d="M125 819v215h1116v-702h-215v487h-901z" />
<glyph unicode="&#xad;" horiz-adv-x="641" d="M100 334v250h461v-250h-461z" />
<glyph unicode="&#xae;" horiz-adv-x="1642" d="M57 727q0 315 224.5 539.5t539.5 224.5t539.5 -224.5t224.5 -539.5q0 -204 -102.5 -381t-280 -279t-381.5 -102q-314 0 -539 224.5t-225 537.5zM205 727q0 -253 181 -433.5t435 -180.5t435.5 180.5t181.5 433.5q0 255 -181.5 435.5t-435.5 180.5t-435 -180.5t-181 -435.5 zM496 319v818h364q295 0 295 -234q0 -177 -221 -223v-4q53 -15 92 -59.5t174 -297.5h-239q-105 204 -132.5 247t-56 60t-49.5 17q-15 0 -25 -2v-322h-202zM698 791h88q160 0 160 102t-151 102h-97v-204z" />
<glyph unicode="&#xaf;" horiz-adv-x="1024" d="M-14 1487v102h1052v-102h-1052z" />
<glyph unicode="&#xb0;" horiz-adv-x="819" d="M90 1053q0 132 94 225.5t226 93.5q131 0 225 -94t94 -225q0 -132 -94 -226t-225 -94q-132 0 -226 94t-94 226zM256 1053q0 -63 45 -107.5t109 -44.5q63 0 108 44.5t45 107.5t-45 108t-108 45t-108.5 -45.5t-45.5 -107.5z" />
<glyph unicode="&#xb1;" horiz-adv-x="1366" d="M125 -59v215h1116v-215h-1116zM125 750v213h450v450h216v-450h450v-213h-450v-451h-216v451h-450z" />
<glyph unicode="&#xb2;" horiz-adv-x="705" d="M80 563q245 384 282 466.5t37 119.5q0 21 -14.5 36t-34.5 15q-51 0 -51 -106v-27h-201q0 120 18 173t79 92.5t155 39.5q111 0 180.5 -61.5t69.5 -159.5q0 -84 -34.5 -167.5t-149.5 -250.5q42 12 131 12h26v-182h-493z" />
<glyph unicode="&#xb3;" horiz-adv-x="705" d="M104 756h191q4 -54 55 -54q25 0 40.5 24.5t15.5 66.5q0 40 -22.5 52.5t-82.5 12.5h-16v191q68 0 93 11t25 58q0 84 -47 84q-49 0 -49 -80h-188q2 121 59.5 184.5t161.5 63.5t171 -65t67 -164q0 -143 -99 -187q121 -48 121 -182q0 -103 -71 -166t-185 -63q-95 0 -162.5 58 t-77.5 155z" />
<glyph unicode="&#xb4;" horiz-adv-x="682" d="M186 1051l140 299h315l-276 -299h-179z" />
<glyph unicode="&#xb5;" horiz-adv-x="954" d="M104 -309v1229h291v-592q0 -46 21.5 -76.5t58.5 -30.5q84 0 84 123v576h291v-533q0 -203 -95 -310.5t-274 -107.5q-49 0 -86 11v-289h-291z" />
<glyph unicode="&#xb6;" horiz-adv-x="1139" d="M33 922q0 108 44 198t120.5 140t138.5 62.5t231 12.5h555v-221h-153v-1485h-197v1485h-143v-1485h-203v883q-190 15 -291.5 123t-101.5 287z" />
<glyph unicode="&#xb7;" horiz-adv-x="555" d="M121 668q0 68 48.5 117t117.5 49t117.5 -49t48.5 -117q0 -69 -48.5 -117.5t-117.5 -48.5t-117.5 48.5t-48.5 117.5z" />
<glyph unicode="&#xb8;" horiz-adv-x="682" d="M145 -285q59 -12 142 -12q58 0 91.5 25.5t33.5 68.5q0 84 -97 84q-44 0 -98 -18l21 98q64 27 124 27q86 0 138.5 -52t52.5 -137q0 -100 -71 -159.5t-191 -59.5q-82 0 -146 17v118z" />
<glyph unicode="&#xb9;" horiz-adv-x="705" d="M158 1171v185h305v-793h-201v608h-104z" />
<glyph unicode="&#xba;" horiz-adv-x="598" d="M43 1061q0 147 68 229t190 82q128 0 197 -82t69 -235q0 -157 -69.5 -239.5t-200.5 -82.5q-121 0 -187.5 85.5t-66.5 242.5zM231 1061q0 -158 72 -158q41 0 57.5 36t16.5 120q0 78 -16.5 111.5t-57.5 33.5q-72 0 -72 -143z" />
<glyph unicode="&#xbb;" horiz-adv-x="1024" d="M27 1063h237l201 -492l-201 -489h-235l200 491zM514 82l199 491l-199 490h234l202 -490l-202 -491h-234z" />
<glyph unicode="&#xbc;" horiz-adv-x="1772" d="M172 1171v185h305v-793h-201v608h-104zM364 -72l846 1446h185l-850 -1446h-181zM1158 86v162l229 492h226v-488h61v-164h-61v-139h-189v137h-266zM1305 250h119v262z" />
<glyph unicode="&#xbd;" horiz-adv-x="1772" d="M172 1171v185h305v-793h-201v608h-104zM357 -72l846 1446h185l-850 -1446h-181zM1156 -51q245 384 282 466.5t37 119.5q0 21 -14.5 36t-34.5 15q-51 0 -51 -106v-27h-201q0 120 18 173t79 92.5t155 39.5q111 0 180.5 -61.5t69.5 -159.5q0 -84 -34.5 -167.5t-149.5 -250.5 q42 12 131 12h26v-182h-493z" />
<glyph unicode="&#xbe;" horiz-adv-x="1772" d="M96 756h191q4 -54 55 -54q25 0 40.5 24.5t15.5 66.5q0 40 -22.5 52.5t-82.5 12.5h-16v191q68 0 93 11t25 58q0 84 -47 84q-49 0 -49 -80h-188q2 121 59.5 184.5t161.5 63.5t171 -65t67 -164q0 -143 -99 -187q121 -48 121 -182q0 -103 -71 -166t-185 -63q-95 0 -162.5 58 t-77.5 155zM371 -72l846 1446h185l-850 -1446h-181zM1157 86v162l229 492h226v-488h61v-164h-61v-139h-189v137h-266zM1304 250h119v262z" />
<glyph unicode="&#xbf;" horiz-adv-x="961" d="M90 88q0 129 59.5 240t172.5 164v174h305v-340q-110 -3 -161.5 -55.5t-51.5 -168.5q0 -155 86 -155q45 0 65 41t21 127h325q-7 -219 -116 -334t-301 -115q-207 0 -305.5 123.5t-98.5 298.5zM297 909q0 68 49 116t117 48q70 0 120 -48t50 -116t-50 -117t-120 -49 q-68 0 -117 49t-49 117z" />
<glyph unicode="&#xc0;" horiz-adv-x="1087" d="M29 0l354 1335h340l354 -1335h-315l-51 223h-320l-53 -223h-309zM287 1741h315l138 -299h-179zM446 463h207q-68 298 -102 567h-4q-36 -277 -101 -567z" />
<glyph unicode="&#xc1;" horiz-adv-x="1087" d="M29 0l354 1335h340l354 -1335h-315l-51 223h-320l-53 -223h-309zM373 1442l140 299h315l-276 -299h-179zM446 463h207q-68 298 -102 567h-4q-36 -277 -101 -567z" />
<glyph unicode="&#xc2;" horiz-adv-x="1087" d="M29 0l354 1335h340l354 -1335h-315l-51 223h-320l-53 -223h-309zM205 1446l211 295h260l207 -295h-225l-117 149l-109 -149h-227zM446 463h207q-68 298 -102 567h-4q-36 -277 -101 -567z" />
<glyph unicode="&#xc3;" horiz-adv-x="1087" d="M29 0l354 1335h340l354 -1335h-315l-51 223h-320l-53 -223h-309zM190 1456v29q0 105 48 165t134 60q38 0 68.5 -9t95.5 -38q89 -39 133 -39q71 0 82 86h129q0 -250 -178 -250q-40 0 -66 6.5t-104 36.5q-102 39 -146 39q-69 0 -69 -80v-6h-127zM446 463h207 q-68 298 -102 567h-4q-36 -277 -101 -567z" />
<glyph unicode="&#xc4;" horiz-adv-x="1087" d="M29 0l354 1335h340l354 -1335h-315l-51 223h-320l-53 -223h-309zM182 1583q0 57 39 96t96 39q56 0 95.5 -39t39.5 -96t-39.5 -96t-95.5 -39q-57 0 -96 39t-39 96zM446 463h207q-68 298 -102 567h-4q-36 -277 -101 -567zM634 1583q0 57 39.5 96t95.5 39q57 0 96 -39 t39 -96t-39 -96t-96 -39q-56 0 -95.5 39t-39.5 96z" />
<glyph unicode="&#xc5;" horiz-adv-x="1087" d="M29 0l354 1335h340l354 -1335h-315l-51 223h-320l-53 -223h-309zM348 1593q0 81 58 138t139 57t138 -57t57 -138t-57 -138.5t-138 -57.5t-139 57.5t-58 138.5zM446 463h207q-68 298 -102 567h-4q-36 -277 -101 -567zM455 1593q0 -36 26.5 -63t63.5 -27q36 0 62 26.5 t26 63.5t-25.5 62.5t-62.5 25.5t-63.5 -25.5t-26.5 -62.5z" />
<glyph unicode="&#xc6;" horiz-adv-x="1421" d="M27 0l530 1335h766v-284h-309v-246h268v-277h-268v-243h311v-285h-614v217h-273l-90 -217h-321zM535 461h176v586h-4q-20 -95 -43.5 -189.5t-43.5 -152.5z" />
<glyph unicode="&#xc7;" horiz-adv-x="897" d="M82 684q0 299 165 493.5t417 194.5q98 0 180 -26v-318q-87 29 -164 29q-118 0 -196 -108t-78 -275q0 -180 78.5 -284.5t209.5 -104.5q64 0 150 30v-317q-92 -29 -144 -31q99 -48 99 -168q0 -100 -71 -159.5t-191 -59.5q-83 0 -146 17v118q59 -12 141 -12q58 0 91.5 25.5 t33.5 68.5q0 84 -96 84q-45 0 -98 -18l20 98q40 14 64 19q-219 49 -342 239t-123 465z" />
<glyph unicode="&#xc8;" horiz-adv-x="854" d="M143 0v1335h613v-284h-310v-246h269v-277h-269v-243h312v-285h-615zM162 1741h315l138 -299h-179z" />
<glyph unicode="&#xc9;" horiz-adv-x="854" d="M143 0v1335h613v-284h-310v-246h269v-277h-269v-243h312v-285h-615zM272 1442l140 299h315l-276 -299h-179z" />
<glyph unicode="&#xca;" horiz-adv-x="854" d="M104 1446l211 295h260l207 -295h-225l-117 149l-109 -149h-227zM143 0v1335h613v-284h-310v-246h269v-277h-269v-243h312v-285h-615z" />
<glyph unicode="&#xcb;" horiz-adv-x="854" d="M90 1583q0 57 39 96t96 39q56 0 95.5 -39t39.5 -96t-39.5 -96t-95.5 -39q-57 0 -96 39t-39 96zM143 0v1335h613v-284h-310v-246h269v-277h-269v-243h312v-285h-615zM542 1583q0 57 39.5 96t95.5 39q57 0 96 -39t39 -96t-39 -96t-96 -39q-56 0 -95.5 39t-39.5 96z" />
<glyph unicode="&#xcc;" horiz-adv-x="610" d="M23 1741h315l138 -299h-179zM154 0v1335h303v-1335h-303z" />
<glyph unicode="&#xcd;" horiz-adv-x="610" d="M141 1442l140 299h315l-276 -299h-179zM154 0v1335h303v-1335h-303z" />
<glyph unicode="&#xce;" horiz-adv-x="610" d="M-43 1446l211 295h260l207 -295h-225l-117 149l-109 -149h-227zM154 0v1335h303v-1335h-303z" />
<glyph unicode="&#xcf;" horiz-adv-x="610" d="M-57 1583q0 57 39 96t96 39q56 0 95.5 -39t39.5 -96t-39.5 -96t-95.5 -39q-57 0 -96 39t-39 96zM154 0v1335h303v-1335h-303zM395 1583q0 57 39.5 96t95.5 39q57 0 96 -39t39 -96t-39 -96t-96 -39q-56 0 -95.5 39t-39.5 96z" />
<glyph unicode="&#xd0;" horiz-adv-x="1108" d="M51 604v121h92v610h283q294 0 447 -167.5t153 -489.5q0 -244 -75.5 -394t-211 -217t-299.5 -67h-297v604h-92zM446 285q138 12 195 97.5t57 281.5q0 116 -20 196.5t-59.5 124t-77 53.5t-95.5 13v-326h183v-121h-183v-319z" />
<glyph unicode="&#xd1;" horiz-adv-x="1270" d="M143 0v1335h306l385 -770l-11 144v626h303v-1335h-311l-377 758l8 -166v-592h-303zM276 1456v29q0 105 48 165t134 60q38 0 68.5 -9t95.5 -38q89 -39 133 -39q71 0 82 86h129q0 -250 -178 -250q-40 0 -66 6.5t-104 36.5q-102 39 -146 39q-69 0 -69 -80v-6h-127z" />
<glyph unicode="&#xd2;" horiz-adv-x="1147" d="M82 688q0 323 127.5 503.5t355.5 180.5q243 0 371.5 -181t128.5 -517t-126.5 -521.5t-360.5 -185.5q-242 0 -369 185.5t-127 535.5zM289 1741h315l138 -299h-179zM403 684q0 -248 41.5 -331t120.5 -83q85 0 130.5 83t45.5 325q0 391 -174 391q-164 0 -164 -385z" />
<glyph unicode="&#xd3;" horiz-adv-x="1147" d="M82 688q0 323 127.5 503.5t355.5 180.5q243 0 371.5 -181t128.5 -517t-126.5 -521.5t-360.5 -185.5q-242 0 -369 185.5t-127 535.5zM403 684q0 -248 41.5 -331t120.5 -83q85 0 130.5 83t45.5 325q0 391 -174 391q-164 0 -164 -385zM412 1442l140 299h315l-276 -299h-179z " />
<glyph unicode="&#xd4;" horiz-adv-x="1147" d="M82 688q0 323 127.5 503.5t355.5 180.5q243 0 371.5 -181t128.5 -517t-126.5 -521.5t-360.5 -185.5q-242 0 -369 185.5t-127 535.5zM227 1446l211 295h260l207 -295h-225l-117 149l-109 -149h-227zM403 684q0 -248 41.5 -331t120.5 -83q85 0 130.5 83t45.5 325 q0 391 -174 391q-164 0 -164 -385z" />
<glyph unicode="&#xd5;" horiz-adv-x="1147" d="M82 688q0 323 127.5 503.5t355.5 180.5q243 0 371.5 -181t128.5 -517t-126.5 -521.5t-360.5 -185.5q-242 0 -369 185.5t-127 535.5zM213 1456v29q0 105 48 165t134 60q38 0 68.5 -9t95.5 -38q89 -39 133 -39q71 0 82 86h129q0 -250 -178 -250q-40 0 -66 6.5t-104 36.5 q-102 39 -146 39q-69 0 -69 -80v-6h-127zM403 684q0 -248 41.5 -331t120.5 -83q85 0 130.5 83t45.5 325q0 391 -174 391q-164 0 -164 -385z" />
<glyph unicode="&#xd6;" horiz-adv-x="1147" d="M82 688q0 323 127.5 503.5t355.5 180.5q243 0 371.5 -181t128.5 -517t-126.5 -521.5t-360.5 -185.5q-242 0 -369 185.5t-127 535.5zM205 1583q0 57 39 96t96 39q56 0 95.5 -39t39.5 -96t-39.5 -96t-95.5 -39q-57 0 -96 39t-39 96zM403 684q0 -248 41.5 -331t120.5 -83 q85 0 130.5 83t45.5 325q0 391 -174 391q-164 0 -164 -385zM657 1583q0 57 39.5 96t95.5 39q57 0 96 -39t39 -96t-39 -96t-96 -39q-56 0 -95.5 39t-39.5 96z" />
<glyph unicode="&#xd7;" horiz-adv-x="1366" d="M158 1049l151 151l375 -375l375 375l151 -151l-372 -375l370 -371l-151 -151l-371 370l-373 -370l-151 151l370 371z" />
<glyph unicode="&#xd8;" horiz-adv-x="1147" d="M82 688q0 323 127.5 503.5t355.5 180.5q186 0 307 -108l78 125l111 -68l-103 -162q107 -175 107 -485q0 -336 -126.5 -521.5t-360.5 -185.5q-186 0 -304 111l-86 -135l-100 65l105 168q-111 188 -111 512zM403 684q0 -112 5 -164l286 459q-45 90 -127 90 q-164 0 -164 -385zM446 350q37 -80 119 -80q85 0 130.5 83t45.5 325q0 81 -6 129z" />
<glyph unicode="&#xd9;" horiz-adv-x="1153" d="M135 506v829h311v-940q0 -66 35 -104.5t94 -38.5q61 0 96.5 41t35.5 113v929h309v-876q0 -179 -47 -287t-138.5 -158.5t-255.5 -50.5q-242 0 -341 124t-99 419zM299 1741h315l138 -299h-179z" />
<glyph unicode="&#xda;" horiz-adv-x="1153" d="M135 506v829h311v-940q0 -66 35 -104.5t94 -38.5q61 0 96.5 41t35.5 113v929h309v-876q0 -179 -47 -287t-138.5 -158.5t-255.5 -50.5q-242 0 -341 124t-99 419zM393 1442l140 299h315l-276 -299h-179z" />
<glyph unicode="&#xdb;" horiz-adv-x="1153" d="M135 506v829h311v-940q0 -66 35 -104.5t94 -38.5q61 0 96.5 41t35.5 113v929h309v-876q0 -179 -47 -287t-138.5 -158.5t-255.5 -50.5q-242 0 -341 124t-99 419zM238 1446l211 295h260l207 -295h-225l-117 149l-109 -149h-227z" />
<glyph unicode="&#xdc;" horiz-adv-x="1153" d="M135 506v829h311v-940q0 -66 35 -104.5t94 -38.5q61 0 96.5 41t35.5 113v929h309v-876q0 -179 -47 -287t-138.5 -158.5t-255.5 -50.5q-242 0 -341 124t-99 419zM215 1583q0 57 39 96t96 39q56 0 95.5 -39t39.5 -96t-39.5 -96t-95.5 -39q-57 0 -96 39t-39 96zM667 1583 q0 57 39.5 96t95.5 39q57 0 96 -39t39 -96t-39 -96t-96 -39q-56 0 -95.5 39t-39.5 96z" />
<glyph unicode="&#xdd;" horiz-adv-x="1047" d="M16 1335h340q113 -288 164 -444h4q51 160 162 444h348l-358 -731v-604h-307v604zM389 1442l140 299h315l-276 -299h-179z" />
<glyph unicode="&#xde;" horiz-adv-x="1024" d="M143 0v1333h303v-252h64q203 0 323.5 -111.5t120.5 -297.5q0 -198 -123.5 -308t-347.5 -110h-37v-254h-303zM446 512h23q84 0 130 40t46 114q0 75 -47 118t-127 43h-25v-315z" />
<glyph unicode="&#xdf;" horiz-adv-x="991" d="M111 0v1004q0 405 413 405q168 0 263.5 -78.5t95.5 -214.5q0 -204 -195 -305q116 -38 170.5 -130.5t54.5 -303.5q0 -196 -79 -304t-222 -108q-66 0 -139 33v221q37 -18 62 -18q51 0 66 40.5t15 141.5q0 287 -114 287q-17 0 -33 -4v254q24 -5 31 -5q80 0 80 136 q0 78 -21.5 111.5t-71.5 33.5q-40 0 -63 -27t-23 -71v-1098h-290z" />
<glyph unicode="&#xe0;" horiz-adv-x="969" d="M59 467q0 221 79 352t208 131q69 0 117 -34.5t100 -110.5h4v115h291v-920h-289v121h-4q-53 -78 -102.5 -115t-116.5 -37q-131 0 -209 134t-78 364zM182 1350h315l138 -299h-179zM344 465q0 -238 117 -238q108 0 108 238q0 229 -112 229q-113 0 -113 -229z" />
<glyph unicode="&#xe1;" horiz-adv-x="969" d="M59 467q0 221 79 352t208 131q69 0 117 -34.5t100 -110.5h4v115h291v-920h-289v121h-4q-53 -78 -102.5 -115t-116.5 -37q-131 0 -209 134t-78 364zM326 1051l140 299h315l-276 -299h-179zM344 465q0 -238 117 -238q108 0 108 238q0 229 -112 229q-113 0 -113 -229z" />
<glyph unicode="&#xe2;" horiz-adv-x="969" d="M59 467q0 221 79 352t208 131q69 0 117 -34.5t100 -110.5h4v115h291v-920h-289v121h-4q-53 -78 -102.5 -115t-116.5 -37q-131 0 -209 134t-78 364zM192 1055l211 295h260l207 -295h-225l-117 149l-109 -149h-227zM344 465q0 -238 117 -238q108 0 108 238q0 229 -112 229 q-113 0 -113 -229z" />
<glyph unicode="&#xe3;" horiz-adv-x="969" d="M59 467q0 221 79 352t208 131q69 0 117 -34.5t100 -110.5h4v115h291v-920h-289v121h-4q-53 -78 -102.5 -115t-116.5 -37q-131 0 -209 134t-78 364zM127 1065v29q0 105 48 165t134 60q38 0 68.5 -9t95.5 -38q89 -39 133 -39q71 0 82 86h129q0 -250 -178 -250 q-40 0 -66 6.5t-104 36.5q-102 39 -146 39q-69 0 -69 -80v-6h-127zM344 465q0 -238 117 -238q108 0 108 238q0 229 -112 229q-113 0 -113 -229z" />
<glyph unicode="&#xe4;" horiz-adv-x="969" d="M59 467q0 221 79 352t208 131q69 0 117 -34.5t100 -110.5h4v115h291v-920h-289v121h-4q-53 -78 -102.5 -115t-116.5 -37q-131 0 -209 134t-78 364zM170 1192q0 57 39 96t96 39q56 0 95.5 -39t39.5 -96t-39.5 -96t-95.5 -39q-57 0 -96 39t-39 96zM344 465q0 -238 117 -238 q108 0 108 238q0 229 -112 229q-113 0 -113 -229zM622 1192q0 57 39.5 96t95.5 39q57 0 96 -39t39 -96t-39 -96t-96 -39q-56 0 -95.5 39t-39.5 96z" />
<glyph unicode="&#xe5;" horiz-adv-x="969" d="M59 467q0 221 79 352t208 131q69 0 117 -34.5t100 -110.5h4v115h291v-920h-289v121h-4q-53 -78 -102.5 -115t-116.5 -37q-131 0 -209 134t-78 364zM285 1202q0 81 58 138t139 57t138 -57t57 -138t-57 -138.5t-138 -57.5t-139 57.5t-58 138.5zM344 465q0 -238 117 -238 q108 0 108 238q0 229 -112 229q-113 0 -113 -229zM392 1202q0 -36 26.5 -63t63.5 -27q36 0 62 26.5t26 63.5t-25.5 62.5t-62.5 25.5t-63.5 -25.5t-26.5 -62.5z" />
<glyph unicode="&#xe6;" horiz-adv-x="1376" d="M59 449q0 224 79 361.5t208 137.5q69 0 119 -34.5t98 -110.5h4v117h242v-93h4q78 121 209 121q124 0 209.5 -110.5t85.5 -382.5v-74h-486q4 -197 109 -197q37 0 66.5 27t33.5 68h254q-5 -138 -84.5 -224t-189.5 -86q-124 0 -207 117h-4v-86h-240v111h-4 q-66 -94 -117.5 -118t-103.5 -24q-126 0 -205.5 132t-79.5 348zM346 455q0 -228 113 -228q108 0 108 213q0 134 -25.5 191t-86.5 57q-109 0 -109 -233zM831 545h207q-1 96 -25.5 142t-78.5 46q-53 0 -76.5 -45.5t-26.5 -142.5z" />
<glyph unicode="&#xe7;" horiz-adv-x="670" d="M59 467q0 215 96 350t248 135q106 0 209 -75v-238q-59 31 -106 31q-70 0 -113 -56.5t-43 -150.5q0 -99 42 -156t114 -57q44 0 104 31v-240q-81 -53 -141 -64q119 -42 119 -178q0 -100 -71 -159.5t-191 -59.5q-83 0 -146 17v118q59 -12 142 -12q57 0 90.5 25.5t33.5 68.5 q0 84 -96 84q-45 0 -98 -18l20 98q40 15 58 19q-128 31 -199.5 161.5t-71.5 325.5z" />
<glyph unicode="&#xe8;" horiz-adv-x="872" d="M59 471q0 218 102 349.5t271 131.5q102 0 196 -63.5t137 -168.5t48 -331h-485q6 -205 114 -205q37 0 66 27t35 70h245q-70 -310 -350 -310q-175 0 -277 133t-102 367zM139 1350h315l138 -299h-179zM332 547h211q-3 97 -27 143.5t-76 46.5q-58 0 -83 -45t-25 -145z" />
<glyph unicode="&#xe9;" horiz-adv-x="872" d="M59 471q0 218 102 349.5t271 131.5q102 0 196 -63.5t137 -168.5t48 -331h-485q6 -205 114 -205q37 0 66 27t35 70h245q-70 -310 -350 -310q-175 0 -277 133t-102 367zM283 1051l140 299h315l-276 -299h-179zM332 547h211q-3 97 -27 143.5t-76 46.5q-58 0 -83 -45 t-25 -145z" />
<glyph unicode="&#xea;" horiz-adv-x="872" d="M59 471q0 218 102 349.5t271 131.5q102 0 196 -63.5t137 -168.5t48 -331h-485q6 -205 114 -205q37 0 66 27t35 70h245q-70 -310 -350 -310q-175 0 -277 133t-102 367zM98 1055l211 295h260l207 -295h-225l-117 149l-109 -149h-227zM332 547h211q-3 97 -27 143.5t-76 46.5 q-58 0 -83 -45t-25 -145z" />
<glyph unicode="&#xeb;" horiz-adv-x="872" d="M59 471q0 218 102 349.5t271 131.5q102 0 196 -63.5t137 -168.5t48 -331h-485q6 -205 114 -205q37 0 66 27t35 70h245q-70 -310 -350 -310q-175 0 -277 133t-102 367zM76 1192q0 57 39 96t96 39q56 0 95.5 -39t39.5 -96t-39.5 -96t-95.5 -39q-57 0 -96 39t-39 96z M332 547h211q-3 97 -27 143.5t-76 46.5q-58 0 -83 -45t-25 -145zM528 1192q0 57 39.5 96t95.5 39q57 0 96 -39t39 -96t-39 -96t-96 -39q-56 0 -95.5 39t-39.5 96z" />
<glyph unicode="&#xec;" horiz-adv-x="528" d="M-31 1350h315l138 -299h-179zM119 0v920h291v-920h-291z" />
<glyph unicode="&#xed;" horiz-adv-x="528" d="M113 1051l140 299h315l-276 -299h-179zM119 0v920h291v-920h-291z" />
<glyph unicode="&#xee;" horiz-adv-x="528" d="M-72 1055l211 295h260l207 -295h-225l-117 149l-109 -149h-227zM119 0v920h291v-920h-291z" />
<glyph unicode="&#xef;" horiz-adv-x="528" d="M-94 1192q0 57 39 96t96 39q56 0 95.5 -39t39.5 -96t-39.5 -96t-95.5 -39q-57 0 -96 39t-39 96zM119 0v920h291v-920h-291zM358 1192q0 57 39.5 96t95.5 39q57 0 96 -39t39 -96t-39 -96t-96 -39q-56 0 -95.5 39t-39.5 96z" />
<glyph unicode="&#xf0;" horiz-adv-x="924" d="M59 451q0 236 102.5 368.5t295.5 132.5q27 0 73 -4q-29 87 -94 166l-194 -117l-54 95l164 98q-42 37 -96 63l119 150q89 -33 174 -94l162 98l55 -92l-131 -80q97 -125 163 -327t66 -384v-73q0 -235 -109.5 -359.5t-297.5 -124.5q-183 0 -290.5 129t-107.5 355zM348 459 q0 -232 111 -232q57 0 85.5 53t28.5 181q0 102 -22 165.5t-90 63.5q-55 0 -84 -49.5t-29 -181.5z" />
<glyph unicode="&#xf1;" horiz-adv-x="967" d="M111 0v920h290v-125h5q102 155 249 155q96 0 152.5 -64t56.5 -173v-713h-291v567q0 47 -22 77t-57 30q-93 0 -93 -117v-557h-290zM145 1065v29q0 105 48 165t134 60q38 0 68.5 -9t95.5 -38q89 -39 133 -39q71 0 82 86h129q0 -250 -178 -250q-40 0 -66 6.5t-104 36.5 q-102 39 -146 39q-69 0 -69 -80v-6h-127z" />
<glyph unicode="&#xf2;" horiz-adv-x="924" d="M59 451q0 236 102.5 368.5t295.5 132.5q199 0 303 -132.5t104 -368.5q0 -231 -108 -357.5t-299 -126.5q-183 0 -290.5 129t-107.5 355zM170 1350h315l138 -299h-179zM348 459q0 -232 111 -232q57 0 85.5 53t28.5 181q0 127 -28 178t-84 51q-55 0 -84 -49.5t-29 -181.5z " />
<glyph unicode="&#xf3;" horiz-adv-x="924" d="M59 451q0 236 102.5 368.5t295.5 132.5q199 0 303 -132.5t104 -368.5q0 -231 -108 -357.5t-299 -126.5q-183 0 -290.5 129t-107.5 355zM305 1051l140 299h315l-276 -299h-179zM348 459q0 -232 111 -232q57 0 85.5 53t28.5 181q0 127 -28 178t-84 51q-55 0 -84 -49.5 t-29 -181.5z" />
<glyph unicode="&#xf4;" horiz-adv-x="924" d="M59 451q0 236 102.5 368.5t295.5 132.5q199 0 303 -132.5t104 -368.5q0 -231 -108 -357.5t-299 -126.5q-183 0 -290.5 129t-107.5 355zM121 1055l211 295h260l207 -295h-225l-117 149l-109 -149h-227zM348 459q0 -232 111 -232q57 0 85.5 53t28.5 181q0 127 -28 178 t-84 51q-55 0 -84 -49.5t-29 -181.5z" />
<glyph unicode="&#xf5;" horiz-adv-x="924" d="M59 451q0 236 102.5 368.5t295.5 132.5q199 0 303 -132.5t104 -368.5q0 -231 -108 -357.5t-299 -126.5q-183 0 -290.5 129t-107.5 355zM106 1065v29q0 105 48 165t134 60q38 0 68.5 -9t95.5 -38q89 -39 133 -39q71 0 82 86h129q0 -250 -178 -250q-40 0 -66 6.5t-104 36.5 q-102 39 -146 39q-69 0 -69 -80v-6h-127zM348 459q0 -232 111 -232q57 0 85.5 53t28.5 181q0 127 -28 178t-84 51q-55 0 -84 -49.5t-29 -181.5z" />
<glyph unicode="&#xf6;" horiz-adv-x="924" d="M59 451q0 236 102.5 368.5t295.5 132.5q199 0 303 -132.5t104 -368.5q0 -231 -108 -357.5t-299 -126.5q-183 0 -290.5 129t-107.5 355zM98 1192q0 57 39 96t96 39q56 0 95.5 -39t39.5 -96t-39.5 -96t-95.5 -39q-57 0 -96 39t-39 96zM348 459q0 -232 111 -232 q57 0 85.5 53t28.5 181q0 127 -28 178t-84 51q-55 0 -84 -49.5t-29 -181.5zM550 1192q0 57 39.5 96t95.5 39q57 0 96 -39t39 -96t-39 -96t-96 -39q-56 0 -95.5 39t-39.5 96z" />
<glyph unicode="&#xf7;" horiz-adv-x="1366" d="M127 573v205h1114v-205h-1114zM551 1098q0 52 37.5 88.5t91.5 36.5q53 0 91 -37.5t38 -89.5q0 -54 -37.5 -91.5t-91.5 -37.5q-52 0 -90.5 38.5t-38.5 92.5zM553 262q0 54 38 92.5t91 38.5t91 -37.5t38 -91.5q0 -53 -38 -91t-91 -38t-91 37.5t-38 89.5z" />
<glyph unicode="&#xf8;" horiz-adv-x="924" d="M43 16l47 61q47 59 47 58q-78 128 -78 316q0 236 102.5 368.5t295.5 132.5q154 0 250 -80l84 107l98 -76l-101 -127q76 -129 76 -325q0 -235 -109.5 -359.5t-297.5 -124.5q-142 0 -242 80q0 1 -41 -50l-41 -52zM348 459q0 -32 2 -47l93 120q94 121 94 119q-26 39 -76 39 q-55 0 -84 -49.5t-29 -181.5zM387 266q26 -39 72 -39q57 0 85.5 53t28.5 181v41z" />
<glyph unicode="&#xf9;" horiz-adv-x="954" d="M104 354v566h291v-592q0 -46 21.5 -76.5t58.5 -30.5q84 0 84 123v576h291v-533q0 -203 -95 -310.5t-274 -107.5q-200 0 -288.5 110t-88.5 275zM182 1350h315l138 -299h-179z" />
<glyph unicode="&#xfa;" horiz-adv-x="954" d="M104 354v566h291v-592q0 -46 21.5 -76.5t58.5 -30.5q84 0 84 123v576h291v-533q0 -203 -95 -310.5t-274 -107.5q-200 0 -288.5 110t-88.5 275zM326 1051l140 299h315l-276 -299h-179z" />
<glyph unicode="&#xfb;" horiz-adv-x="954" d="M104 354v566h291v-592q0 -46 21.5 -76.5t58.5 -30.5q84 0 84 123v576h291v-533q0 -203 -95 -310.5t-274 -107.5q-200 0 -288.5 110t-88.5 275zM141 1055l211 295h260l207 -295h-225l-117 149l-109 -149h-227z" />
<glyph unicode="&#xfc;" horiz-adv-x="954" d="M104 354v566h291v-592q0 -46 21.5 -76.5t58.5 -30.5q84 0 84 123v576h291v-533q0 -203 -95 -310.5t-274 -107.5q-200 0 -288.5 110t-88.5 275zM119 1192q0 57 39 96t96 39q56 0 95.5 -39t39.5 -96t-39.5 -96t-95.5 -39q-57 0 -96 39t-39 96zM571 1192q0 57 39.5 96 t95.5 39q57 0 96 -39t39 -96t-39 -96t-96 -39q-56 0 -95.5 39t-39.5 96z" />
<glyph unicode="&#xfd;" horiz-adv-x="895" d="M20 920h287l73 -239q38 -126 66 -247h5q23 115 38 165l97 321h291l-392 -1299h-290l118 391zM305 1051l140 299h315l-276 -299h-179z" />
<glyph unicode="&#xfe;" horiz-adv-x="975" d="M111 -379v1788h290v-606h5q97 143 219 143q131 0 210.5 -133.5t79.5 -359.5q0 -218 -81.5 -352t-208.5 -134q-134 0 -219 154h-5v-500h-290zM401 461q0 -236 109 -236q115 0 115 238q0 227 -115 227q-109 0 -109 -229z" />
<glyph unicode="&#xff;" horiz-adv-x="895" d="M20 920h287l73 -239q38 -126 66 -247h5q23 115 38 165l97 321h291l-392 -1299h-290l118 391zM98 1192q0 57 39 96t96 39q56 0 95.5 -39t39.5 -96t-39.5 -96t-95.5 -39q-57 0 -96 39t-39 96zM550 1192q0 57 39.5 96t95.5 39q57 0 96 -39t39 -96t-39 -96t-96 -39 q-56 0 -95.5 39t-39.5 96z" />
<glyph unicode="&#x152;" horiz-adv-x="1452" d="M82 688q0 323 127.5 503.5t355.5 180.5q37 0 70.5 -4t62.5 -13l58 -20h598v-284h-310v-246h269v-277h-269v-243h312v-285h-604q-82 -33 -174 -33q-242 0 -369 185.5t-127 535.5zM403 684q0 -248 41.5 -331t120.5 -83q85 0 130.5 83t45.5 325q0 391 -174 391 q-164 0 -164 -385z" />
<glyph unicode="&#x153;" horiz-adv-x="1411" d="M59 459q0 258 114.5 375.5t289.5 117.5q141 0 264 -90q119 88 242 88q158 0 270.5 -133t112.5 -375v-61h-484q3 -201 115 -201q36 0 61 25.5t29 68.5h256q-29 -149 -120.5 -229t-229.5 -80q-85 0 -138.5 22t-119.5 72q-97 -92 -264 -92q-176 0 -287 121.5t-111 370.5z M350 459q0 -234 111 -234q59 0 83.5 57t24.5 185q0 221 -104 221q-115 0 -115 -229zM870 543h205q0 186 -104 186q-101 0 -101 -186z" />
<glyph unicode="&#x178;" horiz-adv-x="1047" d="M16 1335h340q113 -288 164 -444h4q51 160 162 444h348l-358 -731v-604h-307v604zM182 1583q0 57 39 96t96 39q56 0 95.5 -39t39.5 -96t-39.5 -96t-95.5 -39q-57 0 -96 39t-39 96zM634 1583q0 57 39.5 96t95.5 39q57 0 96 -39t39 -96t-39 -96t-96 -39q-56 0 -95.5 39 t-39.5 96z" />
<glyph unicode="&#x2c6;" horiz-adv-x="682" d="M2 1055l211 295h260l207 -295h-225l-117 149l-109 -149h-227z" />
<glyph unicode="&#x2dc;" horiz-adv-x="682" d="M-12 1065v29q0 105 48 165t134 60q38 0 68.5 -9t95.5 -38q89 -39 133 -39q71 0 82 86h129q0 -250 -178 -250q-40 0 -66 6.5t-104 36.5q-102 39 -146 39q-69 0 -69 -80v-6h-127z" />
<glyph unicode="&#x2000;" horiz-adv-x="894" />
<glyph unicode="&#x2001;" horiz-adv-x="1788" />
<glyph unicode="&#x2002;" horiz-adv-x="894" />
<glyph unicode="&#x2003;" horiz-adv-x="1788" />
<glyph unicode="&#x2004;" horiz-adv-x="596" />
<glyph unicode="&#x2005;" horiz-adv-x="447" />
<glyph unicode="&#x2006;" horiz-adv-x="298" />
<glyph unicode="&#x2007;" horiz-adv-x="298" />
<glyph unicode="&#x2008;" horiz-adv-x="223" />
<glyph unicode="&#x2009;" horiz-adv-x="357" />
<glyph unicode="&#x200a;" horiz-adv-x="99" />
<glyph unicode="&#x2010;" horiz-adv-x="641" d="M100 334v250h461v-250h-461z" />
<glyph unicode="&#x2011;" horiz-adv-x="641" d="M100 334v250h461v-250h-461z" />
<glyph unicode="&#x2012;" horiz-adv-x="641" d="M100 334v250h461v-250h-461z" />
<glyph unicode="&#x2013;" horiz-adv-x="1024" d="M-4 393v250h1032v-250h-1032z" />
<glyph unicode="&#x2014;" horiz-adv-x="2048" d="M-4 393v246h2056v-246h-2056z" />
<glyph unicode="&#x2018;" horiz-adv-x="555" d="M164 836v206q0 177 147 334l82 -96q-38 -44 -58.5 -80t-33.5 -119h109v-245h-246z" />
<glyph unicode="&#x2019;" horiz-adv-x="555" d="M162 1128v246h246v-131q0 -272 -150 -407l-84 94q77 91 90 198h-102z" />
<glyph unicode="&#x201a;" horiz-adv-x="555" d="M162 2v246h246v-131q0 -272 -150 -408l-84 94q77 92 90 199h-102z" />
<glyph unicode="&#x201c;" horiz-adv-x="897" d="M164 836v182q0 88 34.5 184t112.5 174l84 -96q-83 -94 -90 -199h107v-245h-248zM504 836v184q0 198 147 356l86 -96q-89 -92 -92 -199h107v-245h-248z" />
<glyph unicode="&#x201d;" horiz-adv-x="897" d="M164 1128v246h248v-137q0 -256 -152 -401l-82 94q82 94 90 198h-104zM502 1128v246h248v-135q0 -267 -150 -405l-84 96q82 94 90 198h-104z" />
<glyph unicode="&#x201e;" horiz-adv-x="897" d="M162 2v244h248v-135q0 -143 -36.5 -231.5t-117.5 -170.5l-80 94q83 94 90 199h-104zM502 2v244h246v-123q0 -142 -33.5 -238.5t-116.5 -177.5l-84 96q83 91 90 199h-102z" />
<glyph unicode="&#x2022;" horiz-adv-x="1024" d="M180 723q0 136 97.5 233t234.5 97q136 0 234 -97t98 -233q0 -138 -97.5 -236t-234.5 -98t-234.5 98t-97.5 236z" />
<glyph unicode="&#x2026;" horiz-adv-x="2048" d="M178 135q0 69 48.5 117.5t115.5 48.5h4q70 0 117 -48t47 -118q0 -68 -49 -117t-117 -49q-67 0 -116.5 49.5t-49.5 116.5zM860 133q0 68 48.5 116t117.5 48t117.5 -48.5t48.5 -117.5q0 -68 -47 -115t-115 -47q-73 0 -121.5 47t-48.5 117zM1548 129q0 70 48.5 120t115.5 50 q73 0 124.5 -48.5t51.5 -117.5q0 -70 -47.5 -117t-120.5 -47q-70 0 -121 47.5t-51 112.5z" />
<glyph unicode="&#x202f;" horiz-adv-x="357" />
<glyph unicode="&#x2039;" horiz-adv-x="555" d="M66 571l202 490h236l-203 -490l199 -489h-236z" />
<glyph unicode="&#x203a;" horiz-adv-x="555" d="M51 1061h236l202 -490l-198 -489h-238l201 489z" />
<glyph unicode="&#x205f;" horiz-adv-x="447" />
<glyph unicode="&#x20ac;" horiz-adv-x="922" d="M18 479l21 154h70q-3 26 -3 84h-83l22 153h74q26 243 169.5 371.5t379.5 128.5q97 0 180 -27v-290q-92 28 -180 28q-128 0 -185 -50.5t-73 -160.5h381l-25 -153h-365q-2 -27 -2 -84h355l-19 -154h-325q31 -227 252 -227q96 0 186 31v-289q-103 -31 -193 -31 q-229 0 -372.5 135t-167.5 381h-97z" />
<glyph unicode="&#x2122;" horiz-adv-x="1942" d="M37 1272v194h801v-194h-285v-621h-236v621h-280zM930 651v815h356l113 -446h4l117 446h346v-815h-221v576h-5l-149 -576h-184l-148 576h-4v-576h-225z" />
<glyph unicode="&#xe000;" horiz-adv-x="920" d="M0 0v920h920v-920h-920z" />
</font>
</defs>
</svg>
